\m/ 80's metal \m/

Информационно-аналитический форум "80 см пыли" (In Search We Trust) "У нас никто никуда не спешит"
Me For You - http://me-4u.com
It is currently 15 Oct 2019

All times are UTC + 3 hours

Spoiler
Chat - temporary registration for foreign users (please leave your application here)







Post new topic Reply to topic  [ 35 posts ]  Go to page 1, 2  Next
Author Message
 
PostPosted: 11 Apr 2011 
А может смените мне статус?..
Joined: 03 Jul 2009
Posts: 885
Lоcаtion: Serbia
Name: Laki
Image


1. Recurrent Inception
2. Enshrouded Crypt
3. Infernal Domicile
4. Ancient Internecine
5. Life's Illusion
6. Impasse of Humanity
7. Mirror of Deception
8. Agamemnon


Thanks in advance !!!!!


Top
 Profile E-mail  
 
 
PostPosted: 30 Apr 2012 
Работнечег
User avatar
Joined: 28 Aug 2007
Posts: 6027
Lоcаtion: г. Москва
Age: 30
Name: Дима
http://rutracker.org/forum/viewtopic.php?t=3955939
Рип с винила. Устроит такой вариант?


Top
 Profile E-mail  
 
 
PostPosted: 03 May 2012 
Работнечег
User avatar
Joined: 28 Aug 2007
Posts: 6027
Lоcаtion: г. Москва
Age: 30
Name: Дима
Выиграл диск, правда от грека, как придет выложу :dance:


Top
 Profile E-mail  
 
 
PostPosted: 03 May 2012 
Хиппей (support team)
User avatar
Joined: 30 Jul 2007
Posts: 114829
Lоcаtion: Киев (Kyiv, UA)
Age: 46
Name: Andrey
:dance:

_________________


Top
 Profile E-mail  
 
 
PostPosted: 03 May 2012 
А может смените мне статус?..
Joined: 03 Jul 2009
Posts: 885
Lоcаtion: Serbia
Name: Laki
church wrote:
http://rutracker.org/forum/viewtopic.php?t=3955939
Рип с винила. Устроит такой вариант?



I will check it. Thanks


Top
 Profile E-mail  
 
 
PostPosted: 19 Aug 2012 
Трешер
User avatar
Joined: 25 Feb 2011
Posts: 1115
Lоcаtion: Харьков
Age: 43
Name: Aleksandr
А Андрюха такие продавал на Ebay штук 7 ушло или 10, фирма где он их откопал не знаю , я брать не захотел не впечатлило.


Top
 Profile E-mail  
 
 
PostPosted: 19 Aug 2012 
Я набрал 1000 сообщений!
User avatar
Joined: 02 Feb 2009
Posts: 1000
Lоcаtion: из Тулы
Age: 45
Name: Максим
альбом класный
на рутрэкере мой рип
могу сделать с бит-рейтом повыше

_________________
КМА


Top
 Profile  
 
 
PostPosted: 21 Nov 2012 
Работнечег
User avatar
Joined: 28 Aug 2007
Posts: 6027
Lоcаtion: г. Москва
Age: 30
Name: Дима
Image

Band: Arcane
Album: Destination Unknown
Label: Wild Rags Records, #WRE/906-2
Genre: Speed/Thrash Metal
Country: USA
Format: Flac + Log + Cue + Covers
Size: 226 Mb

Line-Up:
Kurt Joye - Bass
Byron Hawk - Guitars
Oscar Barbour - Vocals
Kelly Sanford - Drums
Doug Judah - Guitars


Tracklist:
1. Recurrent Inception 06:12
2. Enshrouded Crypt 04:34
3. Infernal Domicile 04:35
4. Ancient Internecine 03:46
5. Life's Illusion 05:16
6. Impasse of Humanity 05:02
7. Mirror of Deception 04:22
8. Agamemnon 05:11

LOG
Exact Audio Copy V0.99 prebeta 5 from 4. May 2009

EAC extraction logfile from 10. November 2012, 19:30

Arcane / Destination Unknown

Used drive : PIONEER DVD-RW DVR-116D Adapter: 0 ID: 0

Read mode : Secure
Utilize accurate stream : Yes
Defeat audio cache : Yes
Make use of C2 pointers : No

Read offset correction : 96
Overread into Lead-In and Lead-Out : No
Fill up missing offset samples with silence : Yes
Delete leading and trailing silent blocks : No
Null samples used in CRC calculations : Yes
Used interface : Native Win32 interface for Win NT & 2000

Used output format : User Defined Encoder
Selected bitrate : 32 kBit/s
Quality : High
Add ID3 tag : No
Command line compressor : C:\Program Files\Exact Audio Copy\Flac\flac.exe
Additional command line options : -6 -V %s


TOC of the extracted CD

Track | Start | Length | Start sector | End sector
---------------------------------------------------------
1 | 0:00.00 | 6:11.42 | 0 | 27866
2 | 6:11.42 | 4:33.68 | 27867 | 48409
3 | 10:45.35 | 4:34.42 | 48410 | 69001
4 | 15:20.02 | 3:45.73 | 69002 | 85949
5 | 19:06.00 | 5:15.47 | 85950 | 109621
6 | 24:21.47 | 5:02.18 | 109622 | 132289
7 | 29:23.65 | 4:21.62 | 132290 | 151926
8 | 33:45.52 | 5:10.55 | 151927 | 175231


Range status and errors

Selected range

Filename D:\Музыка\Lossless\Arcane - Destination Unknown (1990)\Arcane - Destination Unknown.wav

Peak level 76.4 %
Range quality 99.9 %
Copy CRC 4A35C259
Copy OK

No errors occurred


AccurateRip summary

Track 1 not present in database
Track 2 not present in database
Track 3 not present in database
Track 4 not present in database
Track 5 not present in database
Track 6 not present in database
Track 7 not present in database
Track 8 not present in database

None of the tracks are present in the AccurateRip database

End of status report

CUE
REM GENRE "Speed/Thrash Metal"
REM DATE 1990
REM DISCID 67092008
REM COMMENT "ExactAudioCopy v0.99pb5"
PERFORMER "Arcane"
TITLE "Destination Unknown"
FILE "Arcane - Destination Unknown.flac" WAVE
TRACK 01 AUDIO
TITLE "Recurrent inception"
PERFORMER "Arcane"
INDEX 01 00:00:00
TRACK 02 AUDIO
TITLE "Enshrouded crypt"
PERFORMER "Arcane"
INDEX 00 06:07:17
INDEX 01 06:11:42
TRACK 03 AUDIO
TITLE "Internal domicile"
PERFORMER "Arcane"
INDEX 00 10:43:05
INDEX 01 10:45:35
TRACK 04 AUDIO
TITLE "Ancient internecine"
PERFORMER "Arcane"
INDEX 00 15:16:60
INDEX 01 15:20:02
TRACK 05 AUDIO
TITLE "Life's illusion"
PERFORMER "Arcane"
INDEX 00 19:02:10
INDEX 01 19:06:00
TRACK 06 AUDIO
TITLE "Impasse of humanity"
PERFORMER "Arcane"
INDEX 00 24:16:62
INDEX 01 24:21:47
TRACK 07 AUDIO
TITLE "Mirror of deception"
PERFORMER "Arcane"
INDEX 00 29:17:62
INDEX 01 29:23:65
TRACK 08 AUDIO
TITLE "Agamemnon"
PERFORMER "Arcane"
INDEX 00 33:40:65
INDEX 01 33:45:52

Spectrum
Image
Image


Narod.Ru


Top
 Profile E-mail  
 
 
PostPosted: 21 Nov 2012 
Работнечег
User avatar
Joined: 28 Aug 2007
Posts: 6027
Lоcаtion: г. Москва
Age: 30
Name: Дима
Мой рип с диска http://80s.takemetal.com/viewtopic.php?f=174&t=11098
Думаю теперь запрос можно считать выполненным)


Top
 Profile E-mail  
 
 
PostPosted: 21 Nov 2012 
Прокъмитолист
User avatar
Joined: 12 Aug 2007
Posts: 6620
Lоcаtion: Санктъ-Петербуркъ
Age: 51
Name: Олекъ
Димка, это тот, который у грека брал? запросто может оказаться пираткой. все равно утащу, спасибо :thanx:

_________________
прокъметол - это музыко, от которово есть прок (ы)


Top
 Profile  
 
 
PostPosted: 21 Nov 2012 
Работнечег
User avatar
Joined: 28 Aug 2007
Posts: 6027
Lоcаtion: г. Москва
Age: 30
Name: Дима
Димка, это тот, который у грека брал? запросто может оказаться пираткой. все равно утащу, спасибо :thanx:

Ага, вполне может, но понадеюсь на этого грека, по крайней мере матрица правильная, ну и так косяков в орфографии нет, хотя это вообщем ни о чём не говорит, но тем не менее)


Top
 Profile E-mail  
 
 
PostPosted: 22 Nov 2012 
Хиппей (support team)
User avatar
Joined: 30 Jul 2007
Posts: 114829
Lоcаtion: Киев (Kyiv, UA)
Age: 46
Name: Andrey
:thanx:

_________________


Top
 Profile E-mail  
 
 
PostPosted: 22 Nov 2012 
консэрваторъ
User avatar
Joined: 11 Aug 2007
Posts: 17291
Lоcаtion: Псков
Age: 45
Name: Сергей
church wrote:
матрица правильная

Если есть мулд-код на пластике, то какие могут быть сомнения...

_________________
THRASH 'EM ALL


Top
 Profile E-mail  
 
 
PostPosted: 22 Nov 2012 
Я набрал 1000 сообщений!
User avatar
Joined: 02 Feb 2009
Posts: 1000
Lоcаtion: из Тулы
Age: 45
Name: Максим
на рутрэкере выкладывал с винила оцифровку http://rutracker.org/forum/viewtopic.php?t=3955939

_________________
КМА


Top
 Profile  
 
 
PostPosted: 22 Nov 2012 
Я набрал 1000 сообщений!
User avatar
Joined: 25 Dec 2008
Posts: 1545
Age: 44
Name: Павел
splatty wrote:
Если есть мулд-код на пластике

Такой код далеко не у всех фирм имеется. А у меня есть наша свежая пиратка Anthrax, так там даже этот код присутствует.


Top
 Profile  
 
 
PostPosted: 22 Nov 2012 
ТрэшЭрос
User avatar
Joined: 18 Jul 2011
Posts: 2305
Lоcаtion: Гулькевичи
Age: 44
Name: Александр
Дима, :thanx: :true: :true: :true:

_________________
Thrash no trash!!!


Top
 Profile E-mail  
 
 
PostPosted: 22 Nov 2012 
Хиппей (support team)
User avatar
Joined: 30 Jul 2007
Posts: 114829
Lоcаtion: Киев (Kyiv, UA)
Age: 46
Name: Andrey
на рутрэкере выкладывал с винила оцифровку http://rutracker.org/forum/viewtopic.php?t=3955939

:thanx:

_________________


Top
 Profile E-mail  
 
 
PostPosted: 22 Nov 2012 
консэрваторъ
User avatar
Joined: 11 Aug 2007
Posts: 17291
Lоcаtion: Псков
Age: 45
Name: Сергей
hawkhunter wrote:
наша свежая пиратка Anthrax, так там даже этот код присутствует

:shok: а посмотреть можно? Только в этой теме размещай Паш, если соберёшься...

_________________
THRASH 'EM ALL


Top
 Profile E-mail  
 
 
PostPosted: 22 Nov 2012 
Прокъмитолист
User avatar
Joined: 12 Aug 2007
Posts: 6620
Lоcаtion: Санктъ-Петербуркъ
Age: 51
Name: Олекъ
Серёг, сейчас пираты прекрасно научились копировать все коды. а с другой стороны, не на всех настоящих дисках они могут быть. т.е. не имея оригинала, отличить подделку бывает зачастую невозможно.

_________________
прокъметол - это музыко, от которово есть прок (ы)


Top
 Profile  
 
 
PostPosted: 22 Nov 2012 
консэрваторъ
User avatar
Joined: 11 Aug 2007
Posts: 17291
Lоcаtion: Псков
Age: 45
Name: Сергей
spiralarch wrote:
не имея оригинала, отличить подделку бывает зачастую невозможно

Куда катится мир?.. печально... :(

_________________
THRASH 'EM ALL


Top
 Profile E-mail  
 
Display posts from previous:  Sort by  
Post new topic Reply to topic  [ 35 posts ]  Go to page 1, 2  Next

All times are UTC + 3 hours


Who is online

Users browsing this forum: No registered users and 2 guests


You cannot post new topics in this forum
You cannot reply to topics in this forum
You cannot edit your posts in this forum
You cannot delete your posts in this forum
You cannot post attachments in this forum

Search for:
Яндекс.Метрика
cron
Powered by phpBB © 2000, 2002, 2005, 2007 phpBB Group