\m/ 80's metal \m/

Информационно-аналитический форум "80 см пыли" (In Search We Trust) "У нас никто никуда не спешит"
Железнодорожная биржа - RailAgent
It is currently 24 Jun 2018

All times are UTC + 3 hours

Spoiler
Chat - temporary registration for foreign users (please leave your application here)







Post new topic Reply to topic  [ 5 posts ] 
Author Message
 
PostPosted: 05 Jan 2011 
труъ антисионист
User avatar
Joined: 01 Aug 2007
Posts: 4541
Lоcаtion: Откуда и большинство из нас
Age: 37
Name: Дядя Вова
Image
Группа: Acrassicauda
Альбом: Only the Dead See the End of the War
Год: 2010
Лейбл: Vice Records
Стиль: Thrash Metal
Страна: Iraq
Формат: Flack / Tracks
Размер: 150 Mb

******************************************************************************
Стянул с What.cd, поскольку год 2010 канул в лету, то сей релиз просто обязан тут быть.
Техно треш с арабским колоритом, который к тому же продюссировал Алекс Скольник.

phpBB [youtube]



Line Up:

Faisal Talal Mustafa - Lead Vocals, Rhythm Guitar
Tony Aziz Yaqoo - Lead Guitar
Firas Al-Lateef - Bass
Marwan Hussein Riyadh - Drums


Tracks:
1. Message From Baghdad 04:02
2. Garden of Stones 04:46
3. Massacre 05:51
4. The Unknown 06:10


Total playing time 20:49

LOG
Exact Audio Copy V0.99 prebeta 5 from 4. May 2009

EAC extraction logfile from 2. March 2010, 21:31

Acrassicauda / Only the Dead Will See the End of War

Used drive : MATSHITADVD-RAM UJ-850 Adapter: 1 ID: 0

Read mode : Secure
Utilize accurate stream : Yes
Defeat audio cache : Yes
Make use of C2 pointers : No

Read offset correction : 102
Overread into Lead-In and Lead-Out : No
Fill up missing offset samples with silence : Yes
Delete leading and trailing silent blocks : No
Null samples used in CRC calculations : Yes
Used interface : Native Win32 interface for Win NT & 2000
Gap handling : Appended to previous track

Used output format : Internal WAV Routines
Sample format : 44.100 Hz; 16 Bit; Stereo


TOC of the extracted CD

Track | Start | Length | Start sector | End sector
---------------------------------------------------------
1 | 0:00.00 | 4:02.36 | 0 | 18185
2 | 4:02.36 | 4:46.09 | 18186 | 39644
3 | 8:48.45 | 5:51.28 | 39645 | 65997
4 | 14:39.73 | 6:10.13 | 65998 | 93760


Track 1

Filename C:\Users\ryan pape\Desktop\eac\Acrassicauda - Only the Dead Will See the End of War - 01 - Message From Baghdad.wav

Pre-gap length 0:00:02.00

Peak level 99.9 %
Track quality 100.0 %
Test CRC B2BB45EF
Copy CRC B2BB45EF
Track not present in AccurateRip database
Copy OK

Track 2

Filename C:\Users\ryan pape\Desktop\eac\Acrassicauda - Only the Dead Will See the End of War - 02 - Garden of Stones.wav

Pre-gap length 0:10:46.45

Peak level 99.9 %
Track quality 100.0 %
Test CRC A5FE94F4
Copy CRC A5FE94F4
Track not present in AccurateRip database
Copy OK

Track 3

Filename C:\Users\ryan pape\Desktop\eac\Acrassicauda - Only the Dead Will See the End of War - 03 - Massacre.wav

Pre-gap length 0:10:46.50

Peak level 99.9 %
Track quality 100.0 %
Test CRC 214380B3
Copy CRC 214380B3
Track not present in AccurateRip database
Copy OK

Track 4

Filename C:\Users\ryan pape\Desktop\eac\Acrassicauda - Only the Dead Will See the End of War - 04 - The Unkown.wav

Pre-gap length 0:10:48.13

Peak level 99.9 %
Track quality 100.0 %
Test CRC 0AC9D13B
Copy CRC 0AC9D13B
Track not present in AccurateRip database
Copy OK


None of the tracks are present in the AccurateRip database

No errors occurred

End of status report


===================================DOWNLOAD========================================
Acrassicauda (Irq) 2010 Only the Dead.rar

_________________
Image
Image


Top
 Profile  
 
 
PostPosted: 06 Jan 2011 
А может смените мне статус?..
User avatar
Joined: 02 Feb 2009
Posts: 996
Lоcаtion: из Тулы
Age: 44
Name: Максим
отличный альбомец
жаль что маленький
давно правда у меня есть

_________________
КМА


Top
 Profile  
 
 
PostPosted: 06 Jan 2011 
А может смените мне статус?..
User avatar
Joined: 17 Jan 2008
Posts: 842
Lоcаtion: Пенза
Age: 40
Name: Денис
На демках у них материал поинтереснее был,хотя и хуже прописан...А на диске от них начало попахивать металкоровским болотом :pardon: На мой взгляд,американский период творчества группы фуфловатый,иракско-турецкий явно лучше....


Top
 Profile  
 
 
PostPosted: 25 Jan 2011 
Прокъмитолист
User avatar
Joined: 12 Aug 2007
Posts: 6394
Lоcаtion: Санктъ-Петербуркъ
Age: 50
Name: Олекъ
спасибо, Володь! забираем :true:

_________________
прокъметол - это музыко, от которово есть прок (ы)


Top
 Profile  
 
 
PostPosted: 25 Jan 2011 
Хиппей (support team)
User avatar
Joined: 30 Jul 2007
Posts: 104591
Lоcаtion: Киев (Kyiv, UA)
Age: 45
Name: Andrey
Glot wrote:
поскольку год 2010 канул в лету, то сей релиз просто обязан тут быть

:fingal: :crazy: Эх...
Ок, отпишусь снова в отдельной теме :al:

_________________


Top
 Profile E-mail  
 
Display posts from previous:  Sort by  
Post new topic Reply to topic  [ 5 posts ] 

All times are UTC + 3 hours


Who is online

Users browsing this forum: No registered users and 3 guests


You cannot post new topics in this forum
You cannot reply to topics in this forum
You cannot edit your posts in this forum
You cannot delete your posts in this forum
You cannot post attachments in this forum

Search for:
Яндекс.Метрика
Powered by phpBB © 2000, 2002, 2005, 2007 phpBB Group