\m/ 80's metal \m/

Информационно-аналитический форум "80 см пыли" (In Search We Trust) "У нас никто никуда не спешит"
Me For You - http://me-4u.com
It is currently 15 Oct 2019

All times are UTC + 3 hours

Spoiler
Chat - temporary registration for foreign users (please leave your application here)







Post new topic Reply to topic  [ 5 posts ] 
Author Message
 
PostPosted: 31 Dec 2010 
Генеральный thrasher
User avatar
Joined: 03 Oct 2008
Posts: 3738
Lоcаtion: Ханты-Мансийский АО
Age: 44
Name: Сергей
Image

Year:1996
Style:Thrash Metal
Country:Italy
Audio:Flac+Cue+Log+Covers
Size:239Mb
Label:Last Scream

Line-Up:
Gianluca Melino - vocals
Francesco Capasso - guitar
Tiziano Colombi - guitar
Dario Zanaboni - bass
Davide Martinelli - drums

Tracklist:
1. In to 00:53
2. Rape 03:21
3. Respect 03:43
4. I.C.U. 04:37
5. Work 04:31
6. Neurotic Progress 05:02
7. This Means Love 05:29
8. Across 04:15
9. See You Later... 00:36

Cue
REM GENRE Metal
REM DATE 1996
REM DISCID 6D079E09
REM COMMENT "ExactAudioCopy v0.99pb4"
PERFORMER "Alligator"
TITLE "Rules"
FILE "Alligator - Rules.flac" WAVE
TRACK 01 AUDIO
TITLE "In to"
PERFORMER "Alligator"
INDEX 00 00:00:00
INDEX 01 00:00:32
TRACK 02 AUDIO
TITLE "Rape"
PERFORMER "Alligator"
INDEX 01 00:54:12
TRACK 03 AUDIO
TITLE "Respect"
PERFORMER "Alligator"
INDEX 01 04:15:50
TRACK 04 AUDIO
TITLE "I.C.U."
PERFORMER "Alligator"
INDEX 01 07:58:52
TRACK 05 AUDIO
TITLE "Work"
PERFORMER "Alligator"
INDEX 01 12:36:02
TRACK 06 AUDIO
TITLE "Neurotic Progress"
PERFORMER "Alligator"
INDEX 01 17:07:10
TRACK 07 AUDIO
TITLE "This Means Love"
PERFORMER "Alligator"
INDEX 01 22:09:22
TRACK 08 AUDIO
TITLE "Across"
PERFORMER "Alligator"
INDEX 01 27:38:52
TRACK 09 AUDIO
TITLE "See You Later..."
PERFORMER "Alligator"
INDEX 01 31:54:30


Log
Exact Audio Copy V0.99 prebeta 4 from 23. January 2008

Отчёт EAC об извлечении, выполненном 2. ноября 2010, 14:53

Alligator / Rules

Дисковод: TSSTcorpCDDVDW SH-S202N Adapter: 0 ID: 1

Режим чтения : Достоверность
Использование точного потока : Да
Отключение кэша аудио : Да
Использование указателей C2 : Нет

Коррекция смещения при чтении : 6
Способность читать области Lead-in и Lead-out : Нет
Заполнение пропущенных сэмплов тишиной : Да
Удаление блоков с тишиной в начале и конце : Нет
При вычислениях CRC использовались нулевые сэмплы : Да
Интерфейс : Установленный внешний ASPI-интерфейс

Выходной формат : Пользовательский кодировщик
Выбранный битрейт : 768 kBit/s
Качество : Высокий
Добавление ID3-тэга : Нет
Утилита сжатия : C:\Program Files\Exact Audio Copy\FLAC\FLAC.EXE
Дополнительные параметры : -6 -V -T "ARTIST=%a" -T "TITLE=%t" -T "ALBUM=%g" -T "DATE=%y" -T "TRACKNUMBER=%n" -T "GENRE=%m" -T "COMMENT=%e" %s -o %d


TOC извлечённого CD

Трек | Старт | Длительность | Начальный сектор | Конечный сектор
---------------------------------------------------------------------
1 | 0:00.32 | 0:53.55 | 32 | 4061
2 | 0:54.12 | 3:21.38 | 4062 | 19174
3 | 4:15.50 | 3:43.02 | 19175 | 35901
4 | 7:58.52 | 4:37.25 | 35902 | 56701
5 | 12:36.02 | 4:31.08 | 56702 | 77034
6 | 17:07.10 | 5:02.12 | 77035 | 99696
7 | 22:09.22 | 5:29.30 | 99697 | 124401
8 | 27:38.52 | 4:15.53 | 124402 | 143579
9 | 31:54.30 | 0:36.02 | 143580 | 146281


Характеристики диапазона извлечения и сообщения об ошибках

Выбранный диапазон

Имя файла F:\Лоси\A\Alligator - Rules.wav

Пиковый уровень 95.5 %
Качество диапазона 100.0 %
CRC копии F015CFD3
Копирование... OK

Ошибок не произошло


AccurateRip: сводка

Трек 1 нет в базе данных
Трек 2 нет в базе данных
Трек 3 нет в базе данных
Трек 4 нет в базе данных
Трек 5 нет в базе данных
Трек 6 нет в базе данных
Трек 7 нет в базе данных
Трек 8 нет в базе данных
Трек 9 нет в базе данных

Ни одного трека нет в базе AccurateRip

Конец отчёта


MEGAUPLOAD


Top
 Profile  
 
 
PostPosted: 31 Dec 2010 
Прокъмитолист
User avatar
Joined: 12 Aug 2007
Posts: 6620
Lоcаtion: Санктъ-Петербуркъ
Age: 51
Name: Олекъ
спасибо, Серега! :true:

_________________
прокъметол - это музыко, от которово есть прок (ы)


Top
 Profile  
 
 
PostPosted: 31 Dec 2010 
дядя Миша
User avatar
Joined: 17 Oct 2008
Posts: 3189
Lоcаtion: USSR
Age: 57
Name: Khy
Ахуе..ное спасибо , Серый! С новым годом!


Top
 Profile  
 
 
PostPosted: 31 Dec 2010 
Хиппей (support team)
User avatar
Joined: 30 Jul 2007
Posts: 114829
Lоcаtion: Киев (Kyiv, UA)
Age: 46
Name: Andrey
:thanx:
mirror: MultiUp l Narod

_________________


Top
 Profile E-mail  
 
 
PostPosted: 23 Oct 2011 
Работнечег
User avatar
Joined: 28 Aug 2007
Posts: 6027
Lоcаtion: г. Москва
Age: 30
Name: Дима
Спасибо большое, Серег! :true:


Top
 Profile E-mail  
 
Display posts from previous:  Sort by  
Post new topic Reply to topic  [ 5 posts ] 

All times are UTC + 3 hours


Who is online

Users browsing this forum: No registered users and 1 guest


You cannot post new topics in this forum
You cannot reply to topics in this forum
You cannot edit your posts in this forum
You cannot delete your posts in this forum
You cannot post attachments in this forum

Search for:
Яндекс.Метрика
Powered by phpBB © 2000, 2002, 2005, 2007 phpBB Group