\m/ 80's metal \m/

Информационно-аналитический форум "80 см пыли" (In Search We Trust) "У нас никто никуда не спешит"
Me For You - http://me-4u.com
It is currently 22 Oct 2019

All times are UTC + 3 hours

Spoiler
Chat - temporary registration for foreign users (please leave your application here)







Post new topic Reply to topic  [ 7 posts ] 
Author Message
 
PostPosted: 31 Dec 2010 
Генеральный thrasher
User avatar
Joined: 03 Oct 2008
Posts: 3741
Lоcаtion: Ханты-Мансийский АО
Age: 44
Name: Сергей
Image

Year:1994
Style:Thrash Metal
Country:Italy
Audio:Flac+Cue+Log+Covers
Size:332Mb
Label:Last Scream

Line-Up:
Gianluca Melino - vocals
Francesco Capasso - guitar
Tiziano Colombi - guitar
Dario Zanaboni - bass
Andrea Bellazzi - drums

Tracklist:
1. Cerebral Implosion 05:01
2. Beyond the Reach of Fate 00:43
3. The Cage 03:59
4. Decimation 03:48
5. Help 02:10
6. Lullaby for the Unborn 06:39
7. Skeleton's Beach 06:00
8. Tarantula 07:45
9. Drinking Milk from My Kness 00:36
10. Fetching Fear 04:12
11. Natural Victims 06:39

Cue
REM GENRE "Thrash Metal"
REM DATE 1994
REM DISCID 8D0B350B
REM COMMENT "ExactAudioCopy v0.99pb5"
PERFORMER "Alligator"
TITLE "Cerebral Implosion"
FILE "Alligator - Cerebral Implosion.flac" WAVE
TRACK 01 AUDIO
TITLE "Cerebral Implosion"
PERFORMER "Alligator"
INDEX 00 00:00:00
INDEX 01 00:00:32
TRACK 02 AUDIO
TITLE "Beyond The Reach Of Fate"
PERFORMER "Alligator"
INDEX 01 05:01:65
TRACK 03 AUDIO
TITLE "The Cage"
PERFORMER "Alligator"
INDEX 01 05:44:72
TRACK 04 AUDIO
TITLE "Decimation"
PERFORMER "Alligator"
INDEX 01 09:43:62
TRACK 05 AUDIO
TITLE "Help"
PERFORMER "Alligator"
INDEX 00 13:32:45
INDEX 01 13:33:45
TRACK 06 AUDIO
TITLE "Lullaby For The Unborn"
PERFORMER "Alligator"
INDEX 01 15:44:57
TRACK 07 AUDIO
TITLE "Skeletons' Beach"
PERFORMER "Alligator"
INDEX 01 22:23:60
TRACK 08 AUDIO
TITLE "Tarantula"
PERFORMER "Alligator"
INDEX 00 28:25:05
INDEX 01 28:26:05
TRACK 09 AUDIO
TITLE "Drinking Milk From My Knees"
PERFORMER "Alligator"
INDEX 00 36:12:70
INDEX 01 36:14:10
TRACK 10 AUDIO
TITLE "Fetching Fear"
PERFORMER "Alligator"
INDEX 00 36:53:65
INDEX 01 36:54:65
TRACK 11 AUDIO
TITLE "Natural Victims"
PERFORMER "Alligator"
INDEX 01 41:08:27


Log
Exact Audio Copy V0.99 prebeta 5 from 4. May 2009

Отчёт EAC об извлечении, выполненном 29. декабря 2010, 15:30

Alligator / Cerebral Implosion

Дисковод: TSSTcorpCDDVDW SH-S202N Adapter: 0 ID: 1

Режим чтения : Достоверность
Использование точного потока : Да
Отключение кэша аудио : Да
Использование указателей C2 : Нет

Коррекция смещения при чтении : 6
Способность читать области Lead-in и Lead-out : Нет
Заполнение пропущенных сэмплов тишиной : Да
Удаление блоков с тишиной в начале и конце : Нет
При вычислениях CRC использовались нулевые сэмплы : Да
Интерфейс : Встроенный Win32-интерфейс для Win NT/2000

Выходной формат : Пользовательский кодировщик
Выбранный битрейт : 768 kBit/s
Качество : Высокий
Добавление ID3-тэга : Нет
Утилита сжатия : C:\Program Files\Exact Audio Copy\FLAC\FLAC.EXE
Дополнительные параметры : -6 -V -T "ARTIST=%a" -T "TITLE=%t" -T "ALBUM=%g" -T "DATE=%y" -T "TRACKNUMBER=%n" -T "GENRE=%m" -T "COMMENT=%e" %s -o %d


TOC извлечённого CD

Трек | Старт | Длительность | Начальный сектор | Конечный сектор
---------------------------------------------------------------------
1 | 0:00.32 | 5:01.33 | 32 | 22639
2 | 5:01.65 | 0:43.07 | 22640 | 25871
3 | 5:44.72 | 3:58.65 | 25872 | 43786
4 | 9:43.62 | 3:49.58 | 43787 | 61019
5 | 13:33.45 | 2:11.12 | 61020 | 70856
6 | 15:44.57 | 6:39.03 | 70857 | 100784
7 | 22:23.60 | 6:02.20 | 100785 | 127954
8 | 28:26.05 | 7:48.05 | 127955 | 163059
9 | 36:14.10 | 0:40.55 | 163060 | 166114
10 | 36:54.65 | 4:13.37 | 166115 | 185126
11 | 41:08.27 | 6:41.05 | 185127 | 215206


Характеристики диапазона извлечения и сообщения об ошибках

Выбранный диапазон

Имя файла E:\Лоси\A\Alligator - Cerebral Implosion.wav

Пиковый уровень 89.0 %
Качество диапазона 100.0 %
CRC копии 202A4064
Копирование... OK

Ошибок не произошло


AccurateRip: сводка

Трек 1 нет в базе данных
Трек 2 нет в базе данных
Трек 3 нет в базе данных
Трек 4 нет в базе данных
Трек 5 нет в базе данных
Трек 6 нет в базе данных
Трек 7 нет в базе данных
Трек 8 нет в базе данных
Трек 9 нет в базе данных
Трек 10 нет в базе данных
Трек 11 нет в базе данных

Ни одного трека нет в базе AccurateRip

Конец отчёта


MEGAUPLOAD


Top
 Profile  
 
 
PostPosted: 31 Dec 2010 
Прокъмитолист
User avatar
Joined: 12 Aug 2007
Posts: 6628
Lоcаtion: Санктъ-Петербуркъ
Age: 52
Name: Олекъ
огромное спасибо! :thanx: :true:

_________________
прокъметол - это музыко, от которово есть прок (ы)


Top
 Profile  
 
 
PostPosted: 31 Dec 2010 
Хиппей (support team)
User avatar
Joined: 30 Jul 2007
Posts: 115005
Lоcаtion: Киев (Kyiv, UA)
Age: 46
Name: Andrey
:thanx:
mirror: http://www.multiupload.com/5U5SLPYXYE

_________________


Top
 Profile E-mail  
 
 
PostPosted: 23 Oct 2011 
Работнечег
User avatar
Joined: 28 Aug 2007
Posts: 6035
Lоcаtion: г. Москва
Age: 30
Name: Дима
И ещё раз спасибо! :thanx:


Top
 Profile E-mail  
 
 
PostPosted: 23 Oct 2011 
Персональный статус
Joined: 19 Jul 2010
Posts: 282
Lоcаtion: Москва
Name: Вадим
Спасибо. Первый у них альбом был классным, а этот даже не слышал.


Top
 Profile E-mail  
 
 
PostPosted: 23 Oct 2011 
Генеральный thrasher
User avatar
Joined: 03 Oct 2008
Posts: 3741
Lоcаtion: Ханты-Мансийский АО
Age: 44
Name: Сергей
Первый к сожалению выходил только на виниле...Отличный для дебюта был альбом.


Top
 Profile  
 
 
PostPosted: 23 Oct 2011 
Персональный статус
Joined: 19 Jul 2010
Posts: 282
Lоcаtion: Москва
Name: Вадим
Тогда понятно, почему он мне никогда не попадался на ЦД. А я всё понять не мог - почему? :-))
Этот тоже не плох, но уже ближе к детху, чем дебютник.


Top
 Profile E-mail  
 
Display posts from previous:  Sort by  
Post new topic Reply to topic  [ 7 posts ] 

All times are UTC + 3 hours


Who is online

Users browsing this forum: No registered users and 1 guest


You cannot post new topics in this forum
You cannot reply to topics in this forum
You cannot edit your posts in this forum
You cannot delete your posts in this forum
You cannot post attachments in this forum

Search for:
Яндекс.Метрика
Powered by phpBB © 2000, 2002, 2005, 2007 phpBB Group