\m/ 80's metal \m/

Информационно-аналитический форум "80 см пыли" (In Search We Trust) "У нас никто никуда не спешит"
Me For You - http://me-4u.com
It is currently 20 Oct 2019

All times are UTC + 3 hours

Spoiler
Chat - temporary registration for foreign users (please leave your application here)







Post new topic Reply to topic  [ 17 posts ] 
Author Message
 
PostPosted: 10 Nov 2010 
Персональный статус
User avatar
Joined: 29 Jan 2009
Posts: 265
Lоcаtion: Таллин, Эстония.
Age: 32
Name: Роман Юрич
Band / Название Группы: Atheist
Album title / Название Альбома : Piece Of Time
Year / Год Выпуска : 1989
Genre / Жанр: Thrash Metal / Death Metal
Country / Страна : USA

Image

Track list / Список Песен

01. 04:32 Piece Of Time
02. 02:19 Unholy War
03. 04:06 Room With A View
04. 03:38 On They Slay
05. 02:59 Beyond
06. 04:00 I Deny
07. 02:56 Why Bother?
08. 03:12 Life
09. 04:29 No Truth


Technical info / Технические данные .

Source / Источник : CD
Format / Формат : WavPack, -hh -x6 -m. Lossless.
Resolution / Разрешение : 44 KHz / 16 Bit
Total playing time / Суммарное время проигрывания : 32:10
Album art / Полиграфия: Booklet, back cover, CD.
Буклет, задняя обложка, диск.

Comment / Комментарий

Ripped from the first press CD by Caroline / Death Records. Рип сделан с первого издания под Caroline / Death Records.

Links / Ссылки

Megaupload
EAC Log
CUE Sheet

_________________
Death The Ultimate Reality
Death The Ultimate Reason To Live


Last edited by MetalMilitia on 16 Oct 2011, edited 1 time in total.

Top
 Profile  
 
 
PostPosted: 12 Nov 2010 
Доктор энтомологии
User avatar
Joined: 22 Jan 2009
Posts: 9927
Lоcаtion: Даугавпилс
Age: 44
Name: Алексей
:thanx: не забыть скачать


Top
 Profile  
 
 
PostPosted: 12 Nov 2010 
Хиппей (support team)
User avatar
Joined: 30 Jul 2007
Posts: 114953
Lоcаtion: Киев (Kyiv, UA)
Age: 46
Name: Andrey
Рома, спасибо! :thanx:

Вот бы кто еще сказал отсталому, как нонче можно фришно с Рапиды скачать? :oops:

_________________


Top
 Profile E-mail  
 
 
PostPosted: 13 Nov 2010 
Metal Collector
User avatar
Joined: 16 Nov 2008
Posts: 1268
Lоcаtion: Химки
Age: 36
Name: Андрей
Да, проблема однако!


Top
 Profile E-mail  
 
 
PostPosted: 13 Nov 2010 
мiзантропъ
User avatar
Joined: 01 Aug 2007
Posts: 2248
Lоcаtion: UA
Age: 49
Name: Вася Пупкін
JDownloader легко качает...

_________________
Image
Image
Too Little Much Too Late...


Top
 Profile  
 
 
PostPosted: 13 Nov 2010 
Персональный статус
User avatar
Joined: 29 Jan 2009
Posts: 265
Lоcаtion: Таллин, Эстония.
Age: 32
Name: Роман Юрич
Зарегься, на бесплатный аакаунт, и после недолгого ожидания ты сможешь скачать, то что тебя интересует. Хотя насколько я сейчас вижу, даже региться не надо.

_________________
Death The Ultimate Reality
Death The Ultimate Reason To Live


Top
 Profile  
 
 
PostPosted: 19 Nov 2010 
мiзантропъ
User avatar
Joined: 01 Aug 2007
Posts: 2248
Lоcаtion: UA
Age: 49
Name: Вася Пупкін
рип кривоват к сожаленью, а точнее куй:
Quote:
TRACK 01 AUDIO
TITLE "Piece Of Time"
PERFORMER "Atheist"
INDEX 00 00:00:00
INDEX 01 00:00:37
TRACK 02 AUDIO
TITLE "Unholy War"
PERFORMER "Atheist"
INDEX 01 04:32:62
TRACK 03 AUDIO
TITLE "Room With A View"
PERFORMER "Atheist"
INDEX 00 04:32:62
INDEX 01 06:51:25
TRACK 04 AUDIO
TITLE "On They Slay"
PERFORMER "Atheist"
INDEX 00 04:32:62
INDEX 01 10:56:65
TRACK 05 AUDIO
TITLE "Beyond"
PERFORMER "Atheist"
INDEX 00 04:32:62
INDEX 01 14:34:57
TRACK 06 AUDIO
TITLE "I Deny"
PERFORMER "Atheist"
INDEX 00 04:32:62
INDEX 01 17:34:02

и т.д., в общем, ЕАС ругается....
в общем-то как исправить куй что бы записать болванку я знаю, но вот будет ли он правильным - ХЗ....

_________________
Image
Image
Too Little Much Too Late...


Top
 Profile  
 
 
PostPosted: 19 Nov 2010 
Персональный статус
User avatar
Joined: 29 Jan 2009
Posts: 265
Lоcаtion: Таллин, Эстония.
Age: 32
Name: Роман Юрич
Могу перериповать, с использованием Native ASPI Interface.

_________________
Death The Ultimate Reality
Death The Ultimate Reason To Live


Top
 Profile  
 
 
PostPosted: 19 Nov 2010 
Прокъмитолист
User avatar
Joined: 12 Aug 2007
Posts: 6627
Lоcаtion: Санктъ-Петербуркъ
Age: 52
Name: Олекъ
тут дело не в интерфейсе (и перерипывать смысла нет, надо всего лишь куй переделать). просто метод определения зазоров неправильно выбран.

_________________
прокъметол - это музыко, от которово есть прок (ы)


Top
 Profile  
 
 
PostPosted: 20 Nov 2010 
Персональный статус
User avatar
Joined: 29 Jan 2009
Posts: 265
Lоcаtion: Таллин, Эстония.
Age: 32
Name: Роман Юрич
spiralarch wrote:
тут дело не в интерфейсе (и перерипывать смысла нет, надо всего лишь куй переделать). просто метод определения зазоров неправильно выбран.


Будь добр, подскажи, какой выбрать и где ?

Заранее спасибо !

_________________
Death The Ultimate Reality
Death The Ultimate Reason To Live


Top
 Profile  
 
 
PostPosted: 20 Nov 2010 
Прокъмитолист
User avatar
Joined: 12 Aug 2007
Posts: 6627
Lоcаtion: Санктъ-Петербуркъ
Age: 52
Name: Олекъ
ну я вроде в темке про ЕАК все подробно расписывал: viewtopic.php?f=209&t=1145
советую всегда ставить именно такие настройки: detection method A, secure. и только если этот метод не дает корректных результатов, пробовать другие варианты.

_________________
прокъметол - это музыко, от которово есть прок (ы)


Top
 Profile  
 
 
PostPosted: 20 Nov 2010 
Персональный статус
User avatar
Joined: 29 Jan 2009
Posts: 265
Lоcаtion: Таллин, Эстония.
Age: 32
Name: Роман Юрич
Куй переделал : Atheist (1989) - Piece Of Time - CUE

_________________
Death The Ultimate Reality
Death The Ultimate Reason To Live


Top
 Profile  
 
 
PostPosted: 23 Jan 2011 
Я набрал 1000 сообщений!
User avatar
Joined: 04 Jul 2009
Posts: 1352
Age: 46
Name: dima
Read mode : Burst

Ужас!!!

А в Secure можно перерипнуть?


Top
 Profile E-mail  
 
 
PostPosted: 28 Feb 2011 
Персональный статус
User avatar
Joined: 29 Jan 2009
Posts: 265
Lоcаtion: Таллин, Эстония.
Age: 32
Name: Роман Юрич
Можно.
(Дополнение от 01.03.2011) Осталось только выложить.

_________________
Death The Ultimate Reality
Death The Ultimate Reason To Live


Top
 Profile  
 
 
PostPosted: 15 Oct 2011 
Хиппей (support team)
User avatar
Joined: 30 Jul 2007
Posts: 114953
Lоcаtion: Киев (Kyiv, UA)
Age: 46
Name: Andrey
MetalMilitia wrote:
Осталось только выложить.

:vic:

_________________


Top
 Profile E-mail  
 
 
PostPosted: 16 Oct 2011 
Персональный статус
User avatar
Joined: 29 Jan 2009
Posts: 265
Lоcаtion: Таллин, Эстония.
Age: 32
Name: Роман Юрич
Часть поста со ссылка поправил.

_________________
Death The Ultimate Reality
Death The Ultimate Reason To Live


Top
 Profile  
 
 
PostPosted: 01 Nov 2011 
Хиппей (support team)
User avatar
Joined: 30 Jul 2007
Posts: 114953
Lоcаtion: Киев (Kyiv, UA)
Age: 46
Name: Andrey
:thanx:

_________________


Top
 Profile E-mail  
 
Display posts from previous:  Sort by  
Post new topic Reply to topic  [ 17 posts ] 

All times are UTC + 3 hours


Who is online

Users browsing this forum: No registered users and 1 guest


You cannot post new topics in this forum
You cannot reply to topics in this forum
You cannot edit your posts in this forum
You cannot delete your posts in this forum
You cannot post attachments in this forum

Search for:
Яндекс.Метрика
Powered by phpBB © 2000, 2002, 2005, 2007 phpBB Group