\m/ 80's metal \m/

Информационно-аналитический форум "80 см пыли" (In Search We Trust) "У нас никто никуда не спешит"
Железнодорожная биржа - RailAgent
It is currently 20 Aug 2018

All times are UTC + 3 hours

Spoiler
Chat - temporary registration for foreign users (please leave your application here)







Post new topic Reply to topic  [ 4 posts ] 
Author Message
 
PostPosted: 03 Nov 2010 
Хиппей (support team)
User avatar
Joined: 30 Jul 2007
Posts: 105686
Lоcаtion: Киев (Kyiv, UA)
Age: 45
Name: Andrey
AC/DC - 2009 - BackTracks (collection) (Japanese issued) [flac]

Attachment:
47.jpg
47.jpg [ 119.49 KiB | Viewed 83 times ]


Genre: Hard Rock/Boogie/Blues Rock
Location: Australia
Format: flac+cue+log+scans+photo
Size: два больших файла


CD1 (Studio Rarities):

01. Stick Around
02. Love Song
03. Fling Thing
04. R.I.P. (Rock In Peace)
05. Carry Me Home
06. Crabsody In Blue
07. Cold Hearted Man
08. Snake Eye
09. Borrowed Time
10. Down On The Borderline
11. Big Gun
12. Cyberspace

CD2 (Live Rarities):

01. Dirty Deeds Done Dirt Cheap
02. Dog Eat Dog
03. Live Wire
04. Shot Down In Flames
05. Back In Black
06. T.N.T.
07. Let There Be Rock
08. Guns For Hire
09. Rock And Roll Ain't Noise Pollution
10. This House Is On Fire
11. You Shook Me All Night Long
12. Jailbreak
13. Highway To Hell
14. For Those About To Rock
15. Safe In New York City

CD1 - Studio
CD2 - Live

Диск зарипал Андрюха rebel (из личной коллекции) :thanx:

log - studio
Exact Audio Copy V0.99 prebeta 5 from 4. May 2009

Отчёт EAC об извлечении, выполненном 20. октября 2010, 16:41

AC-DC / BackTracks - Studio Rarities

Дисковод: LITE-ON DVDRW LH-20A1S Adapter: 2 ID: 0

Режим чтения : Достоверность
Использование точного потока : Да
Отключение кэша аудио : Да
Использование указателей C2 : Нет

Коррекция смещения при чтении : 6
Способность читать области Lead-in и Lead-out : Нет
Заполнение пропущенных сэмплов тишиной : Да
Удаление блоков с тишиной в начале и конце : Нет
При вычислениях CRC использовались нулевые сэмплы : Да
Интерфейс : Встроенный Win32-интерфейс для Win NT/2000

Выходной формат : Внутренние WAV-операции
Формат сэмплов : 44.100 Гц; 16 бит; стерео


TOC извлечённого CD

Трек | Старт | Длительность | Начальный сектор | Конечный сектор
---------------------------------------------------------------------
1 | 0:00.00 | 4:39.60 | 0 | 20984
2 | 4:39.60 | 5:15.13 | 20985 | 44622
3 | 9:54.73 | 2:00.29 | 44623 | 53651
4 | 11:55.27 | 3:35.41 | 53652 | 69817
5 | 15:30.68 | 3:57.09 | 69818 | 87601
6 | 19:28.02 | 4:43.44 | 87602 | 108870
7 | 24:11.46 | 3:36.01 | 108871 | 125071
8 | 27:47.47 | 3:17.28 | 125072 | 139874
9 | 31:05.00 | 3:45.40 | 139875 | 156789
10 | 34:50.40 | 4:14.61 | 156790 | 175900
11 | 39:05.26 | 4:20.09 | 175901 | 195409
12 | 43:25.35 | 2:55.69 | 195410 | 208603


Характеристики диапазона извлечения и сообщения об ошибках

Выбранный диапазон

Имя файла D:\AC-DC - BackTracks - Studio Rarities.wav

Пиковый уровень 100.0 %
Качество диапазона 99.9 %
CRC теста 0E93D2AA
CRC копии 0E93D2AA
Копирование... OK

Ошибок не произошло


AccurateRip: сводка

Трек 1 точное извлечение (доверие 29) [DE293177]
Трек 2 точное извлечение (доверие 30) [79390EB5]
Трек 3 точное извлечение (доверие 30) [83B107E6]
Трек 4 точное извлечение (доверие 29) [38F9090A]
Трек 5 точное извлечение (доверие 30) [CF371F0D]
Трек 6 точное извлечение (доверие 30) [3934F1DC]
Трек 7 точное извлечение (доверие 30) [1ED836CF]
Трек 8 точное извлечение (доверие 30) [68118BDB]
Трек 9 точное извлечение (доверие 30) [A89159B1]
Трек 10 точное извлечение (доверие 30) [233127B3]
Трек 11 точное извлечение (доверие 30) [C93CFCF2]
Трек 12 точное извлечение (доверие 29) [08D40DED]

Все треки извлечены точно

Конец отчёта


log - live
Exact Audio Copy V0.99 prebeta 5 from 4. May 2009

Отчёт EAC об извлечении, выполненном 24. октября 2010, 16:28

AC-DC / BackTracks - Live Rarities

Дисковод: LITE-ON DVDRW LH-20A1S Adapter: 2 ID: 0

Режим чтения : Достоверность
Использование точного потока : Да
Отключение кэша аудио : Да
Использование указателей C2 : Нет

Коррекция смещения при чтении : 6
Способность читать области Lead-in и Lead-out : Нет
Заполнение пропущенных сэмплов тишиной : Да
Удаление блоков с тишиной в начале и конце : Нет
При вычислениях CRC использовались нулевые сэмплы : Да
Интерфейс : Встроенный Win32-интерфейс для Win NT/2000

Выходной формат : Внутренние WAV-операции
Формат сэмплов : 44.100 Гц; 16 бит; стерео


TOC извлечённого CD

Трек | Старт | Длительность | Начальный сектор | Конечный сектор
---------------------------------------------------------------------
1 | 0:00.00 | 5:10.50 | 0 | 23299
2 | 5:10.50 | 4:30.26 | 23300 | 43575
3 | 9:41.01 | 5:06.25 | 43576 | 66550
4 | 14:47.26 | 3:28.59 | 66551 | 82209
5 | 18:16.10 | 4:19.59 | 82210 | 101693
6 | 22:35.69 | 3:53.10 | 101694 | 119178
7 | 26:29.04 | 7:30.50 | 119179 | 152978
8 | 33:59.54 | 5:23.23 | 152979 | 177226
9 | 39:23.02 | 4:11.58 | 177227 | 196109
10 | 43:34.60 | 3:22.74 | 196110 | 211333
11 | 46:57.59 | 3:27.23 | 211334 | 226881
12 | 50:25.07 | 13:21.48 | 226882 | 287004
13 | 63:46.55 | 3:59.60 | 287005 | 304989
14 | 67:46.40 | 6:55.34 | 304990 | 336148
15 | 74:41.74 | 3:54.41 | 336149 | 353739


Характеристики диапазона извлечения и сообщения об ошибках

Выбранный диапазон

Имя файла D:\AC-DC - BackTracks - Live Rarities.wav

Пиковый уровень 100.0 %
Качество диапазона 99.9 %
CRC теста E2368C1B
CRC копии E2368C1B
Копирование... OK

Ошибок не произошло


AccurateRip: сводка

Трек 1 точное извлечение (доверие 27) [8C609116]
Трек 2 точное извлечение (доверие 28) [11B7B8CC]
Трек 3 точное извлечение (доверие 28) [014801EE]
Трек 4 точное извлечение (доверие 28) [D1CE2ADC]
Трек 5 точное извлечение (доверие 28) [27FB853A]
Трек 6 точное извлечение (доверие 28) [158FB687]
Трек 7 точное извлечение (доверие 28) [879C5F03]
Трек 8 точное извлечение (доверие 28) [9A9C2B8B]
Трек 9 точное извлечение (доверие 28) [BDA8BC05]
Трек 10 точное извлечение (доверие 28) [DC1CE8C4]
Трек 11 точное извлечение (доверие 28) [7CF9A736]
Трек 12 точное извлечение (доверие 28) [70E3AF78]
Трек 13 точное извлечение (доверие 28) [BCE1968E]
Трек 14 точное извлечение (доверие 28) [26B67296]
Трек 15 точное извлечение (доверие 26) [94D9C0E6]

Все треки извлечены точно

Конец отчёта


cue - studio
REM GENRE "Hard Rock"
REM DATE 2009
REM DISCID AC0ADD0C
REM COMMENT "ExactAudioCopy v0.99pb5"
PERFORMER "AC-DC"
TITLE "BackTracks - Studio Rarities"
FILE "AC-DC - BackTracks - Studio Rarities.wav" WAVE
TRACK 01 AUDIO
TITLE "Stick Around"
PERFORMER "AC-DC"
INDEX 01 00:00:00
TRACK 02 AUDIO
TITLE "Love Song"
PERFORMER "AC-DC"
INDEX 00 04:38:71
INDEX 01 04:39:60
TRACK 03 AUDIO
TITLE "Fling Thing"
PERFORMER "AC-DC"
INDEX 00 09:54:12
INDEX 01 09:54:73
TRACK 04 AUDIO
TITLE "R.I.P. (Rock In Peace)"
PERFORMER "AC-DC"
INDEX 00 11:54:38
INDEX 01 11:55:27
TRACK 05 AUDIO
TITLE "Carry Me Home"
PERFORMER "AC-DC"
INDEX 00 15:29:50
INDEX 01 15:30:68
TRACK 06 AUDIO
TITLE "Crabsody In Blue"
PERFORMER "AC-DC"
INDEX 00 19:27:08
INDEX 01 19:28:02
TRACK 07 AUDIO
TITLE "Cold Hearted Man"
PERFORMER "AC-DC"
INDEX 00 24:11:07
INDEX 01 24:11:46
TRACK 08 AUDIO
TITLE "Snake Eye"
PERFORMER "AC-DC"
INDEX 00 27:46:59
INDEX 01 27:47:47
TRACK 09 AUDIO
TITLE "Borrowed Time"
PERFORMER "AC-DC"
INDEX 00 31:03:60
INDEX 01 31:05:00
TRACK 10 AUDIO
TITLE "Down On The Borderline"
PERFORMER "AC-DC"
INDEX 00 34:49:60
INDEX 01 34:50:40
TRACK 11 AUDIO
TITLE "Big Gun"
PERFORMER "AC-DC"
INDEX 00 39:05:00
INDEX 01 39:05:26
TRACK 12 AUDIO
TITLE "Cyberspace"
PERFORMER "AC-DC"
INDEX 00 43:24:55
INDEX 01 43:25:35


cue - live
REM GENRE Metal
REM DATE 2009
REM DISCID E3126C0F
REM COMMENT "ExactAudioCopy v0.99pb5"
PERFORMER "AC-DC"
TITLE "BackTracks - Live Rarities"
FILE "AC-DC - BackTracks - Live Rarities.wav" WAVE
TRACK 01 AUDIO
TITLE "Dirty Deeds Done Dirt Cheap"
PERFORMER "AC-DC"
INDEX 01 00:00:00
TRACK 02 AUDIO
TITLE "Dog Eat Dog"
PERFORMER "AC-DC"
INDEX 00 05:10:15
INDEX 01 05:10:50
TRACK 03 AUDIO
TITLE "Live Wire"
PERFORMER "AC-DC"
INDEX 00 09:40:46
INDEX 01 09:41:01
TRACK 04 AUDIO
TITLE "Shot Down In Flames"
PERFORMER "AC-DC"
INDEX 00 14:46:66
INDEX 01 14:47:26
TRACK 05 AUDIO
TITLE "Back In Black"
PERFORMER "AC-DC"
INDEX 00 18:15:66
INDEX 01 18:16:10
TRACK 06 AUDIO
TITLE "T.N.T."
PERFORMER "AC-DC"
INDEX 01 22:35:69
TRACK 07 AUDIO
TITLE "Let There Be Rock"
PERFORMER "AC-DC"
INDEX 00 26:28:52
INDEX 01 26:29:04
TRACK 08 AUDIO
TITLE "Guns For Hire"
PERFORMER "AC-DC"
INDEX 00 33:59:25
INDEX 01 33:59:54
TRACK 09 AUDIO
TITLE "Rock And Roll Ain't Noise Pollution"
PERFORMER "AC-DC"
INDEX 00 39:22:20
INDEX 01 39:23:02
TRACK 10 AUDIO
TITLE "This House Is On Fire"
PERFORMER "AC-DC"
INDEX 00 43:33:42
INDEX 01 43:34:60
TRACK 11 AUDIO
TITLE "You Shook Me All Night Long"
PERFORMER "AC-DC"
INDEX 00 46:57:31
INDEX 01 46:57:59
TRACK 12 AUDIO
TITLE "Jailbreak"
PERFORMER "AC-DC"
INDEX 00 50:24:56
INDEX 01 50:25:07
TRACK 13 AUDIO
TITLE "Highway To Hell"
PERFORMER "AC-DC"
INDEX 00 63:45:71
INDEX 01 63:46:55
TRACK 14 AUDIO
TITLE "For Those About To Rock (We Salute You)"
PERFORMER "AC-DC"
INDEX 00 67:45:56
INDEX 01 67:46:40
TRACK 15 AUDIO
TITLE "Safe In New York City"
PERFORMER "AC-DC"
INDEX 00 74:41:17
INDEX 01 74:41:74

_________________


Top
 Profile E-mail  
 
 
PostPosted: 03 Nov 2010 
Позитивный Южанин
User avatar
Joined: 07 May 2010
Posts: 1620
Lоcаtion: КРЫМ
Age: 43
Name: Алексей
ЖИРНЫЙ ПОДОКОННИК :true:

_________________
WATER'EM ALL!


Top
 Profile E-mail  
 
 
PostPosted: 04 Nov 2010 
Хиппей (support team)
User avatar
Joined: 30 Jul 2007
Posts: 105686
Lоcаtion: Киев (Kyiv, UA)
Age: 45
Name: Andrey
Ога, и деревья еще зеленые...

Вот только что на третьем диске, пока не понял. Видео? :vic:

_________________


Top
 Profile E-mail  
 
 
PostPosted: 03 Jun 2011 
Хиппей (support team)
User avatar
Joined: 30 Jul 2007
Posts: 105686
Lоcаtion: Киев (Kyiv, UA)
Age: 45
Name: Andrey
Упс... кто-то успел скачать? :oops:
А то я заловые вещи тогда стянул, а второй диск ща смотрю - просрочен :fingal:
Если у кого есть возможность, перезалейте, плиз. А я затем уже снова перелью и буду следить за архивами (эти не я заливал).
Если нету, ну... так и будет :cry:

_________________


Top
 Profile E-mail  
 
Display posts from previous:  Sort by  
Post new topic Reply to topic  [ 4 posts ] 

All times are UTC + 3 hours


Who is online

Users browsing this forum: No registered users and 2 guests


You cannot post new topics in this forum
You cannot reply to topics in this forum
You cannot edit your posts in this forum
You cannot delete your posts in this forum
You cannot post attachments in this forum

Search for:
Яндекс.Метрика
Powered by phpBB © 2000, 2002, 2005, 2007 phpBB Group