\m/ 80's metal \m/

Информационно-аналитический форум "80 см пыли" (In Search We Trust) "У нас никто никуда не спешит"
Железнодорожная биржа - RailAgent
It is currently 23 Jun 2018

All times are UTC + 3 hours

Spoiler
Chat - temporary registration for foreign users (please leave your application here)







Post new topic Reply to topic  [ 9 posts ] 
Author Message
 
PostPosted: 02 Nov 2010 
ыыыы
User avatar
Joined: 17 May 2009
Posts: 952
Lоcаtion: Пушкино, МО
Age: 39
Name: Дмитрий
Image


Жанр: Heavy Metal
Происхождение исполнителя: Канада
Год издания: 1982
Год издания данного носителя: 1985
Страна-производитель носителя: Япония для Голландии
Аудио кодек: FLAC
Тип рипа: image+.cue
Битрейт аудио: lossless
Продолжительность: 43:03
Рип: Собственный
Лейбл: ATTIC/ROADRUNNER
Каталоговый номер: RR 34 9917
Матрица: 9917 X-194 1A1 (CTA)

Треклист:
1. Metal on Metal 03:57
2. Mothra 05:08
3. Stop Me 05:26
4. March of the Crabs 02:33
5. Jackhammer 03:33
6. Heat Sink 03:57
7. Tag Team 04:09
8. Scenery 04:41
9. Tease Me, Please Me 04:53
10. 666 04:46

"Куй"
REM GENRE "Hard Rock"
REM DATE 1982
REM DISCID 820A170A
REM COMMENT "ExactAudioCopy v0.99pb5"
PERFORMER "Anvil"
TITLE "Metal On Metal [RR 34 9917]"
FILE "Anvil - Metal On Metal [RR 34 9917].flac" WAVE
TRACK 01 AUDIO
TITLE "Metal On Metal"
PERFORMER "Anvil"
INDEX 01 00:00:00
TRACK 02 AUDIO
TITLE "Mothra"
PERFORMER "Anvil"
INDEX 00 03:55:12
INDEX 01 03:56:42
TRACK 03 AUDIO
TITLE "Stop Me"
PERFORMER "Anvil"
INDEX 00 09:02:25
INDEX 01 09:04:07
TRACK 04 AUDIO
TITLE "March Of The Crabs"
PERFORMER "Anvil"
INDEX 00 14:29:00
INDEX 01 14:30:10
TRACK 05 AUDIO
TITLE "Jackhammer"
PERFORMER "Anvil"
INDEX 00 17:02:55
INDEX 01 17:03:45
TRACK 06 AUDIO
TITLE "Heatsink"
PERFORMER "Anvil"
INDEX 00 20:36:02
INDEX 01 20:36:50
TRACK 07 AUDIO
TITLE "Tag Team"
PERFORMER "Anvil"
INDEX 00 24:32:17
INDEX 01 24:33:45
TRACK 08 AUDIO
TITLE "Scenery"
PERFORMER "Anvil"
INDEX 00 28:41:45
INDEX 01 28:42:70
TRACK 09 AUDIO
TITLE "Tease Me, Please Me"
PERFORMER "Anvil"
INDEX 00 33:23:37
INDEX 01 33:24:27
TRACK 10 AUDIO
TITLE "666"
PERFORMER "Anvil"
INDEX 00 38:16:35
INDEX 01 38:17:17


"Лог"
Exact Audio Copy V0.99 prebeta 5 from 4. May 2009

Отчёт EAC об извлечении, выполненном 2. ноября 2010, 11:40

Anvil / Metal On Metal [RR 34 9917]

Дисковод: Optiarc DVD RW AD-7200A Adapter: 1 ID: 0

Режим чтения : Достоверность
Использование точного потока : Да
Отключение кэша аудио : Да
Использование указателей C2 : Нет

Коррекция смещения при чтении : 48
Способность читать области Lead-in и Lead-out : Нет
Заполнение пропущенных сэмплов тишиной : Да
Удаление блоков с тишиной в начале и конце : Нет
При вычислениях CRC использовались нулевые сэмплы : Да
Интерфейс : Встроенный Win32-интерфейс для Win NT/2000

Выходной формат : Пользовательский кодировщик
Выбранный битрейт : 128 kBit/s
Качество : Высокий
Добавление ID3-тэга : Нет
Утилита сжатия : C:\Program Files\Exact Audio Copy\Flac\flac.exe
Дополнительные параметры : -8 -V -T "artist=%a" -T "title=%t" -T "album=%g" -T "date=%y" -T "tracknumber=%n" -T "genre=%m" -T "comment=EAC


TOC извлечённого CD

Трек | Старт | Длительность | Начальный сектор | Конечный сектор
---------------------------------------------------------------------
1 | 0:00.00 | 3:56.42 | 0 | 17741
2 | 3:56.42 | 5:07.40 | 17742 | 40806
3 | 9:04.07 | 5:26.03 | 40807 | 65259
4 | 14:30.10 | 2:33.35 | 65260 | 76769
5 | 17:03.45 | 3:33.05 | 76770 | 92749
6 | 20:36.50 | 3:56.70 | 92750 | 110519
7 | 24:33.45 | 4:09.25 | 110520 | 129219
8 | 28:42.70 | 4:41.32 | 129220 | 150326
9 | 33:24.27 | 4:52.65 | 150327 | 172291
10 | 38:17.17 | 4:46.08 | 172292 | 193749


Характеристики диапазона извлечения и сообщения об ошибках

Выбранный диапазон

Имя файла Y:\Музыка\Anvil\1982 Metal On Metal\Anvil - Metal On Metal [RR 34 9917].wav

Пиковый уровень 98.9 %
Качество диапазона 100.0 %
CRC теста 52E61F4C
CRC копии 52E61F4C
Копирование... OK

Ошибок не произошло


AccurateRip: сводка

Трек 1 точное извлечение (доверие 5) [8B969C3C]
Трек 2 точное извлечение (доверие 5) [4FD5EA1E]
Трек 3 точное извлечение (доверие 5) [7251CF82]
Трек 4 точное извлечение (доверие 5) [49B3971D]
Трек 5 точное извлечение (доверие 5) [10BFC8F0]
Трек 6 точное извлечение (доверие 5) [2B530B08]
Трек 7 точное извлечение (доверие 5) [4E8B8506]
Трек 8 точное извлечение (доверие 5) [C4437349]
Трек 9 точное извлечение (доверие 5) [6139408A]
Трек 10 точное извлечение (доверие 5) [40714123]

Все треки извлечены точно

Конец отчёта


Состав:
Lips: Vocals, Guitar
Dave Allison: Guitar, Vocals on "Stop Me"
Ian Dickson: Bass
Robb Reiner: Drums

RR 34 9917

_________________
Витасу до Даймонда как Алсу до Руссоса | При переразмещении - спрашивать разрешение!!


Top
 Profile  
 
 
PostPosted: 02 Nov 2010 
Power Metal Maniac
User avatar
Joined: 09 Aug 2008
Posts: 6150
Lоcаtion: Москва
Age: 40
Name: Егор
:thanx: не забыть скачать!

_________________
Long Live Metal!


Top
 Profile  
 
 
PostPosted: 02 Nov 2010 
А может смените мне статус?..
Joined: 03 Jul 2009
Posts: 766
Lоcаtion: Serbia
Name: Laki
Thanks !!!!


Top
 Profile E-mail  
 
 
PostPosted: 02 Nov 2010 
Анатолий
User avatar
Joined: 18 Oct 2008
Posts: 3043
Lоcаtion: Армавир
Age: 41
Name: Анатолий
iezuit

СПАСИБО!!! :thanx: КУЛЬТ!!! :true: Одна из моих любимейших групп! 80-е навсегда!


Top
 Profile E-mail  
 
 
PostPosted: 02 Nov 2010 
Хиппей (support team)
User avatar
Joined: 30 Jul 2007
Posts: 104553
Lоcаtion: Киев (Kyiv, UA)
Age: 45
Name: Andrey
:thanx:
mirror: MultiUp l Narod

_________________


Top
 Profile E-mail  
 
 
PostPosted: 02 Nov 2010 
А может смените мне статус?..
User avatar
Joined: 24 Dec 2008
Posts: 603
Age: 44
Name: Дмитрий
УРА! :meloman:


Top
 Profile  
 
 
PostPosted: 02 Nov 2010 
Gretzky must die
User avatar
Joined: 16 Sep 2010
Posts: 262
Lоcаtion: Московская обл.
Name: Андрей
О ! Спасибо за канадиенсов !


Top
 Profile  
 
 
PostPosted: 02 Nov 2010 
5cm
User avatar
Joined: 01 Mar 2009
Posts: 61
Name: Сергей
СПАСИБО! Альбомом Strength of Steel не порадуешь?


Top
 Profile  
 
 
PostPosted: 03 Nov 2010 
ыыыы
User avatar
Joined: 17 May 2009
Posts: 952
Lоcаtion: Пушкино, МО
Age: 39
Name: Дмитрий
fantafan
неа

_________________
Витасу до Даймонда как Алсу до Руссоса | При переразмещении - спрашивать разрешение!!


Top
 Profile  
 
Display posts from previous:  Sort by  
Post new topic Reply to topic  [ 9 posts ] 

All times are UTC + 3 hours


Who is online

Users browsing this forum: No registered users and 3 guests


You cannot post new topics in this forum
You cannot reply to topics in this forum
You cannot edit your posts in this forum
You cannot delete your posts in this forum
You cannot post attachments in this forum

Search for:
Яндекс.Метрика
Powered by phpBB © 2000, 2002, 2005, 2007 phpBB Group