\m/ 80's metal \m/

Информационно-аналитический форум "80 см пыли" (In Search We Trust) "У нас никто никуда не спешит"
Me For You - http://me-4u.com
It is currently 20 Oct 2019

All times are UTC + 3 hours

Spoiler
Chat - temporary registration for foreign users (please leave your application here)







Post new topic Reply to topic  [ 6 posts ] 
Author Message
 
PostPosted: 31 Oct 2010 
Я набрал 1000 сообщений!
User avatar
Joined: 25 Dec 2008
Posts: 1545
Age: 44
Name: Павел
Anvil - Backwaxed
Year:1985
Country:Canada
Genre:Heavy Metal
Format:APE+log+cue+covers
Size:260 Mb
Первоначальный релизер Abig7


Image

log
EAC extraction logfile from 2. February 2009, 16:05 for CD
Anvil / Backwaxed

Used drive : HL-DT-STDVD-ROM GDR8162B Adapter: 1 ID: 1
Read mode : Secure with NO C2, accurate stream, disable cache
Read offset correction : 102
Overread into Lead-In and Lead-Out : No

Used output format : Internal WAV Routines
44.100 Hz; 16 Bit; Stereo

Other options :
Fill up missing offset samples with silence : Yes
Delete leading and trailing silent blocks : No
Installed external ASPI interface


Range status and errors
Selected range
Filename E:\Music\Anvil - 1985 - Backwaxed\Anvil - Backwaxed.wav

Peak level 100.0 %
Range quality 100.0 %
CRC 2CE0F28D
Copy OK

No errors occured

End of status report

cue
REM GENRE "Heavy Metal"
REM DATE 1985
REM DISCID 7B08CA0A
REM COMMENT "ExactAudioCopy v0.95b4"
PERFORMER "Anvil"
TITLE "Backwaxed"
FILE "Anvil - Backwaxed.ape" WAVE
TRACK 01 AUDIO
TITLE "Backwaxed"
PERFORMER "Anvil"
INDEX 01 00:00:00
TRACK 02 AUDIO
TITLE "Steamin'"
PERFORMER "Anvil"
INDEX 01 03:51:01
TRACK 03 AUDIO
TITLE "Pussy Poison"
PERFORMER "Anvil"
INDEX 01 07:32:59
TRACK 04 AUDIO
TITLE "You're A Liar"
PERFORMER "Anvil"
INDEX 01 10:17:10
TRACK 05 AUDIO
TITLE "Fryin' Cryin'"
PERFORMER "Anvil"
INDEX 01 15:16:01
TRACK 06 AUDIO
TITLE "Metal On Metal"
PERFORMER "Anvil"
INDEX 01 18:26:15
TRACK 07 AUDIO
TITLE "Butter-Bust Jerky"
PERFORMER "Anvil"
INDEX 01 22:26:33
TRACK 08 AUDIO
TITLE "Scenery"
PERFORMER "Anvil"
INDEX 01 25:48:34
TRACK 09 AUDIO
TITLE "Jackhammer"
PERFORMER "Anvil"
INDEX 01 30:35:03
TRACK 10 AUDIO
TITLE "School Love"
PERFORMER "Anvil"
INDEX 01 34:11:36


Одни из основоположников пауэр-металл как стиля.Это компиляция,выпущенная без согласия музыкантов,поэтому на обложке нет фирменной наковальни.Здесь 5 нереализованных трэков и материал очень неровный.Песни с альбомов "Metal on Metal" и "Forged in Fire"-это культ.Остальное-значительно слабее,песни слишком мягкие.

Tracklist:
1.Backwaxed 03:48
2.Steamin' 03:39
3.Pussy Poison 02:42
4.You're a Liar 04:56
5.Fryin' Cryin' 03:09
6.Metal On Metal 03:57
7.Butter-Bust Jerky 03:20
8.Scenery 04:45
9.Jackhammer 03:34
10.School Love 03:16


Anvil - 1985 - Backwaxed.rar


Top
 Profile  
 
 
PostPosted: 01 Nov 2010 
Прокъмитолист
User avatar
Joined: 12 Aug 2007
Posts: 6627
Lоcаtion: Санктъ-Петербуркъ
Age: 52
Name: Олекъ
угу, здесь не только нет наковальни на обложке, но это также единственный альбом, имеющий не "фирменное" энвиловское название: из трех слов, где первое и последнее начинаются с одной буквы :umnik:

_________________
прокъметол - это музыко, от которово есть прок (ы)


Top
 Profile  
 
 
PostPosted: 01 Nov 2010 
Power Metal Maniac
User avatar
Joined: 09 Aug 2008
Posts: 6923
Lоcаtion: Москва
Age: 41
Name: Егор
:thanx:

_________________
Long Live Metal!


Top
 Profile  
 
 
PostPosted: 02 Nov 2010 
Анатолий
User avatar
Joined: 18 Oct 2008
Posts: 3573
Lоcаtion: Армавир
Age: 42
Name: Анатолий
hawkhunter

Спасибо огромное, Павел! :thanx: Помог! :true:


Top
 Profile E-mail  
 
 
PostPosted: 01 Sep 2011 
Хиппей (support team)
User avatar
Joined: 30 Jul 2007
Posts: 114953
Lоcаtion: Киев (Kyiv, UA)
Age: 46
Name: Andrey
:thanx:
mirror: MultiUp l Narod

_________________


Top
 Profile E-mail  
 
 
PostPosted: 03 Sep 2011 
ТрэшЭрос
User avatar
Joined: 18 Jul 2011
Posts: 2305
Lоcаtion: Гулькевичи
Age: 44
Name: Александр
hawkhunter, :thanx:

_________________
Thrash no trash!!!


Top
 Profile E-mail  
 
Display posts from previous:  Sort by  
Post new topic Reply to topic  [ 6 posts ] 

All times are UTC + 3 hours


Who is online

Users browsing this forum: No registered users and 1 guest


You cannot post new topics in this forum
You cannot reply to topics in this forum
You cannot edit your posts in this forum
You cannot delete your posts in this forum
You cannot post attachments in this forum

Search for:
Яндекс.Метрика
Powered by phpBB © 2000, 2002, 2005, 2007 phpBB Group