\m/ 80's metal \m/

Информационно-аналитический форум "80 см пыли" (In Search We Trust) "У нас никто никуда не спешит"
Me For You - http://me-4u.com
It is currently 19 Oct 2019

All times are UTC + 3 hours

Spoiler
Chat - temporary registration for foreign users (please leave your application here)







Post new topic Reply to topic  [ 49 posts ]  Go to page Previous  1, 2, 3
Author Message
 
PostPosted: 27 Oct 2010 
Хиппей (support team)
User avatar
Joined: 30 Jul 2007
Posts: 114950
Lоcаtion: Киев (Kyiv, UA)
Age: 46
Name: Andrey
Accept - 1983 - Balls To The Wall (Japan reissued 2009)

Image

Genre: Heavy Metal
Location: Germany
Format: flac+cue+log+scans+photo
Size: 336 Mb


    1. Balls to the Wall - 05:50
    2. London Leatherboys - 03:57
    3. Fight it Back - 03:30
    4. Head Over Heels - 04:19
    5. Losing More than You've Ever Had - 05:04
    6. Love Child - 03:35
    7. Turn Me On - 05:12
    8. Losers and Winners - 04:19
    9. Guardian of the Night - 04:25
    10. Winter Dreams - 04:45

    TPT: 45:15

Narod
MultiUp
Deposit

Источник: рип и заливка товарища rebel :thanx: (диск взят из его собственной коллекции)

log
Exact Audio Copy V0.99 prebeta 5 from 4. May 2009

Отчёт EAC об извлечении, выполненном 18. октября 2010, 16:27

Accept / Balls To The Wall

Дисковод: LITE-ON DVDRW LH-20A1S Adapter: 2 ID: 0

Режим чтения : Достоверность
Использование точного потока : Да
Отключение кэша аудио : Да
Использование указателей C2 : Нет

Коррекция смещения при чтении : 6
Способность читать области Lead-in и Lead-out : Нет
Заполнение пропущенных сэмплов тишиной : Да
Удаление блоков с тишиной в начале и конце : Нет
При вычислениях CRC использовались нулевые сэмплы : Да
Интерфейс : Встроенный Win32-интерфейс для Win NT/2000

Выходной формат : Внутренние WAV-операции
Формат сэмплов : 44.100 Гц; 16 бит; стерео


TOC извлечённого CD

Трек | Старт | Длительность | Начальный сектор | Конечный сектор
---------------------------------------------------------------------
1 | 0:00.00 | 5:43.23 | 0 | 25747
2 | 5:43.23 | 3:57.57 | 25748 | 43579
3 | 9:41.05 | 3:33.73 | 43580 | 59627
4 | 13:15.03 | 4:24.60 | 59628 | 79487
5 | 17:39.63 | 5:07.37 | 79488 | 102549
6 | 22:47.25 | 3:34.45 | 102550 | 118644
7 | 26:21.70 | 5:11.70 | 118645 | 142039
8 | 31:33.65 | 4:19.70 | 142040 | 161534
9 | 35:53.60 | 4:24.50 | 161535 | 181384
10 | 40:18.35 | 4:52.68 | 181385 | 203352


Характеристики диапазона извлечения и сообщения об ошибках

Выбранный диапазон

Имя файла D:\Accept - Balls To The Wall.wav

Пиковый уровень 100.0 %
Качество диапазона 100.0 %
CRC копии F09C633A
Копирование... OK

Ошибок не произошло


AccurateRip: сводка

Трек 1 точное извлечение (доверие 7) [62D91499]
Трек 2 точное извлечение (доверие 7) [DE4B427E]
Трек 3 точное извлечение (доверие 7) [029AC945]
Трек 4 точное извлечение (доверие 7) [FCC7D00C]
Трек 5 точное извлечение (доверие 7) [F868FAC8]
Трек 6 точное извлечение (доверие 7) [849C5FA5]
Трек 7 точное извлечение (доверие 7) [D0C0B47A]
Трек 8 точное извлечение (доверие 7) [0AC33F35]
Трек 9 точное извлечение (доверие 7) [C185DA57]
Трек 10 точное извлечение (доверие 6) [D7C718FB]

Все треки извлечены точно

Конец отчёта


cue
REM GENRE "Heavy Metal"
REM DATE 1984
REM DISCID 8D0A970A
REM COMMENT "ExactAudioCopy v0.99pb5"
PERFORMER "Accept"
TITLE "Balls To The Wall"
FILE "Accept - Balls To The Wall.wav" WAVE
TRACK 01 AUDIO
TITLE "Balls To The Wall"
PERFORMER "Accept"
INDEX 01 00:00:00
TRACK 02 AUDIO
TITLE "London Leatherboys"
PERFORMER "Accept"
INDEX 01 05:43:23
TRACK 03 AUDIO
TITLE "Fight It Back"
PERFORMER "Accept"
INDEX 01 09:41:05
TRACK 04 AUDIO
TITLE "Head Over Heels"
PERFORMER "Accept"
INDEX 01 13:15:03
TRACK 05 AUDIO
TITLE "Losing More Than You've Ever Had"
PERFORMER "Accept"
INDEX 01 17:39:63
TRACK 06 AUDIO
TITLE "Love Child"
PERFORMER "Accept"
INDEX 01 22:47:25
TRACK 07 AUDIO
TITLE "Turn Me On"
PERFORMER "Accept"
INDEX 01 26:21:70
TRACK 08 AUDIO
TITLE "Losers And Winners"
PERFORMER "Accept"
INDEX 01 31:33:65
TRACK 09 AUDIO
TITLE "Guardian Of The Night"
PERFORMER "Accept"
INDEX 01 35:53:60
TRACK 10 AUDIO
TITLE "Winterdreams"
PERFORMER "Accept"
INDEX 01 40:18:35

_________________


Top
 Profile E-mail  
 
 
PostPosted: 03 Nov 2011 
труъ антисионист
User avatar
Joined: 01 Aug 2007
Posts: 4544
Lоcаtion: Откуда и большинство из нас
Age: 38
Name: Дядя Вова
splatty wrote:
Не пора ли орущего бота забанить?

Дюже грамотный нынче бот пошёл :true:

_________________
Image
Image


Top
 Profile  
 
 
PostPosted: 03 Nov 2011 
Хиппей (support team)
User avatar
Joined: 30 Jul 2007
Posts: 114950
Lоcаtion: Киев (Kyiv, UA)
Age: 46
Name: Andrey
Серёг, это не бот, а твой тёзка =)
Но, думаю, вот такая ссылка http://video.mail.ru/mail/unlorddd/TrashMetal тебя немного... "раздразит", например :crazy: :esel:

http://moole.ru/user/surr :cow:

_________________


Top
 Profile E-mail  
 
 
PostPosted: 05 Nov 2011 
консэрваторъ
User avatar
Joined: 11 Aug 2007
Posts: 17310
Lоcаtion: Псков
Age: 45
Name: Сергей
Саныч, ты зря здесь свой пост оставил... сносить так все следы... офтоп не пришей не пристегни вышел...

_________________
THRASH 'EM ALL


Top
 Profile E-mail  
 
 
PostPosted: 05 Nov 2011 
Хиппей (support team)
User avatar
Joined: 30 Jul 2007
Posts: 114950
Lоcаtion: Киев (Kyiv, UA)
Age: 46
Name: Andrey
Совершенно не вижу смысла сносить из топика чьи-то посты.

_________________


Top
 Profile E-mail  
 
 
PostPosted: 05 Nov 2011 
консэрваторъ
User avatar
Joined: 11 Aug 2007
Posts: 17310
Lоcаtion: Псков
Age: 45
Name: Сергей
Здесь был пост этого Сергея, ты его снёс в мусорку, а свой оставил... и я тут намусорил немного... получился жёсткий бесполезный офтоп...

_________________
THRASH 'EM ALL


Top
 Profile E-mail  
 
 
PostPosted: 05 Nov 2011 
Хиппей (support team)
User avatar
Joined: 30 Jul 2007
Posts: 114950
Lоcаtion: Киев (Kyiv, UA)
Age: 46
Name: Andrey
splatty wrote:
Здесь был пост этого Сергея, ты его снёс в мусорку

:shok:
Серёг, я не сношу посты. Исключение, если их продублировали из-за сбоя форума или тырнета. Ну и откровенный и наглый спам.
Загляни на предыдущую страничку. Доброе утро :hi:

_________________


Top
 Profile E-mail  
 
 
PostPosted: 05 Nov 2011 
консэрваторъ
User avatar
Joined: 11 Aug 2007
Posts: 17310
Lоcаtion: Псков
Age: 45
Name: Сергей
Тьху ты... всё никак не привыкну к первому посту на каждой странице :dash:

_________________
THRASH 'EM ALL


Top
 Profile E-mail  
 
 
PostPosted: 05 Nov 2011 
Хиппей (support team)
User avatar
Joined: 30 Jul 2007
Posts: 114950
Lоcаtion: Киев (Kyiv, UA)
Age: 46
Name: Andrey
Сниму щас галочку, чтоб не отвлекала =)

_________________


Top
 Profile E-mail  
 
 
PostPosted: 25 Feb 2018 
Я набрал 1000 сообщений!
Joined: 12 Dec 2008
Posts: 1066
Lоcаtion: BULGARIA
Age: 41
Name: DIMITЪR
Не точно в тему но ......
Прослушал всех вариантов, но только 2 понравились ,другие пластиковьй ремастерьй. :nea: :pardon: :oops:


Image


Top
 Profile  
 
Display posts from previous:  Sort by  
Post new topic Reply to topic  [ 49 posts ]  Go to page Previous  1, 2, 3

All times are UTC + 3 hours


Who is online

Users browsing this forum: No registered users and 2 guests


You cannot post new topics in this forum
You cannot reply to topics in this forum
You cannot edit your posts in this forum
You cannot delete your posts in this forum
You cannot post attachments in this forum

Search for:
Яндекс.Метрика
Powered by phpBB © 2000, 2002, 2005, 2007 phpBB Group