\m/ 80's metal \m/

Информационно-аналитический форум "80 см пыли" (In Search We Trust) "У нас никто никуда не спешит"
Me For You - http://me-4u.com
It is currently 15 Oct 2019

All times are UTC + 3 hours

Spoiler
Chat - temporary registration for foreign users (please leave your application here)







Post new topic Reply to topic  [ 4 posts ] 
Author Message
 
PostPosted: 11 Oct 2010 
ыыыы
User avatar
Joined: 17 May 2009
Posts: 952
Lоcаtion: Пушкино, МО
Age: 41
Name: Дмитрий
Image


Жанр: Heavy Metal/Shred
Происхождение исполнителя: Италия
Год издания: 1992
Год издания данного носителя: 1992
Страна-производитель носителя: Япония
Аудио кодек: FLAC
Тип рипа: image+.cue
Битрейт аудио: lossless
Продолжительность: 42:40
Рип: Собственный
Лейбл: VIRGIN/APOLLON
Каталоговый номер: APCY-8085
Матрица: APCY-8085-A1P 11 V (JVC)

Треклист:
1. Corrida 04:55
2. Love in her Eyes 05:24
3. French Blues 04:38
4. The Storm 03:10
5. White Lady 05:31
6. Hymn (United Europe) 05:23
7. Last Encounters 04:04
8. 1001 Nights 06:33
9. Summer of 89 03:01

"Куй"
REM GENRE "Heavy Metal"
REM DATE 1992
REM DISCID 8A0A0009
REM COMMENT "ExactAudioCopy v0.99pb5"
PERFORMER "Angi Schiliro"
TITLE "White Lady [APCY-8085]"
FILE "Angi Schiliro - White Lady [APCY-8085].flac" WAVE
TRACK 01 AUDIO
TITLE "Corrida"
PERFORMER "Angi Schiliro"
INDEX 00 00:00:00
INDEX 01 00:00:37
TRACK 02 AUDIO
TITLE "Love In Her Eyes"
PERFORMER "Angi Schiliro"
INDEX 01 04:55:67
TRACK 03 AUDIO
TITLE "French Blues"
PERFORMER "Angi Schiliro"
INDEX 00 10:17:56
INDEX 01 10:19:45
TRACK 04 AUDIO
TITLE "The Storm"
PERFORMER "Angi Schiliro"
INDEX 01 14:57:25
TRACK 05 AUDIO
TITLE "White Lady"
PERFORMER "Angi Schiliro"
INDEX 00 18:06:31
INDEX 01 18:07:52
TRACK 06 AUDIO
TITLE "Hymne (United Europe)"
PERFORMER "Angi Schiliro"
INDEX 00 23:37:18
INDEX 01 23:39:00
TRACK 07 AUDIO
TITLE "Last Encounters"
PERFORMER "Angi Schiliro"
INDEX 00 29:00:58
INDEX 01 29:02:35
TRACK 08 AUDIO
TITLE "1001 Nights"
PERFORMER "Angi Schiliro"
INDEX 00 33:04:61
INDEX 01 33:06:57
TRACK 09 AUDIO
TITLE "Summer Of '89"
PERFORMER "Angi Schiliro"
INDEX 00 39:39:16
INDEX 01 39:40:00


"Лог"
Exact Audio Copy V0.99 prebeta 5 from 4. May 2009

Отчёт EAC об извлечении, выполненном 11. октября 2010, 9:44

Angi Schiliro / White Lady [APCY-8085]

Дисковод: Optiarc DVD RW AD-7200A Adapter: 1 ID: 0

Режим чтения : Достоверность
Использование точного потока : Да
Отключение кэша аудио : Да
Использование указателей C2 : Нет

Коррекция смещения при чтении : 48
Способность читать области Lead-in и Lead-out : Нет
Заполнение пропущенных сэмплов тишиной : Да
Удаление блоков с тишиной в начале и конце : Нет
При вычислениях CRC использовались нулевые сэмплы : Да
Интерфейс : Встроенный Win32-интерфейс для Win NT/2000

Выходной формат : Пользовательский кодировщик
Выбранный битрейт : 128 kBit/s
Качество : Высокий
Добавление ID3-тэга : Нет
Утилита сжатия : C:\Program Files\Exact Audio Copy\Flac\flac.exe
Дополнительные параметры : -8 -V -T "artist=%a" -T "title=%t" -T "album=%g" -T "date=%y" -T "tracknumber=%n" -T "genre=%m" -T "comment=EAC


TOC извлечённого CD

Трек | Старт | Длительность | Начальный сектор | Конечный сектор
---------------------------------------------------------------------
1 | 0:00.37 | 4:55.30 | 37 | 22191
2 | 4:55.67 | 5:23.53 | 22192 | 46469
3 | 10:19.45 | 4:37.55 | 46470 | 67299
4 | 14:57.25 | 3:10.27 | 67300 | 81576
5 | 18:07.52 | 5:31.23 | 81577 | 106424
6 | 23:39.00 | 5:23.35 | 106425 | 130684
7 | 29:02.35 | 4:04.22 | 130685 | 149006
8 | 33:06.57 | 6:33.18 | 149007 | 178499
9 | 39:40.00 | 3:00.47 | 178500 | 192046


Характеристики диапазона извлечения и сообщения об ошибках

Выбранный диапазон

Имя файла Y:\Музыка\Angi Schiliro\1992 White Lady\Angi Schiliro - White Lady [APCY-8085].wav

Пиковый уровень 100.0 %
Качество диапазона 100.0 %
CRC копии 2CC49876
Копирование... OK

Ошибок не произошло


AccurateRip: сводка

Трек 1 нет в базе данных
Трек 2 нет в базе данных
Трек 3 нет в базе данных
Трек 4 нет в базе данных
Трек 5 нет в базе данных
Трек 6 нет в базе данных
Трек 7 нет в базе данных
Трек 8 нет в базе данных
Трек 9 нет в базе данных

Ни одного трека нет в базе AccurateRip

Конец отчёта


Состав:
Angi Schiliró: Guitars, bass on Corrida
Enzo "Ferrari" Buttà: Basses
Tommy Patrick: Keyboards
Vito Cecere: Drums
Demi D'Metrio: Keyboards on "Love In Her Eyes"

APCY-8085

_________________
Витасу до Даймонда как Алсу до Руссоса | При переразмещении - спрашивать разрешение!!


Last edited by iezuit on 11 Oct 2010, edited 1 time in total.

Top
 Profile  
 
 
PostPosted: 11 Oct 2010 
А может смените мне статус?..
Joined: 03 Jul 2009
Posts: 885
Lоcаtion: Serbia
Name: Laki
Thanks for this rare cd !!!!


Top
 Profile E-mail  
 
 
PostPosted: 11 Oct 2010 
Old Time Rock`n`Roll
User avatar
Joined: 23 Jun 2008
Posts: 3490
Warnings: 1
Lоcаtion: г.Ульяновск
Age: 41
Name: Константин
Cпасибо за альбом, даже не ожидал, что его в Японии издавали, в принципе не той известности исполнитель. Заменю свой потрековый рип. Энжи Шилиро - гитарист швейцарских Stormbribger и Zero, не знаю точно ли итальянец он или швейцарец, но если и итальянец,то это не должно смущать. Спасибо.


Top
 Profile  
 
 
PostPosted: 18 Oct 2010 
Персональный статус
Joined: 14 May 2010
Posts: 236
Age: 38
Name: Денис
Спасибо!
Понравилось. Раньше не слышал. И да.. Швейцария это или Италия, тоже голову сломал.
Вещь!!!


Top
 Profile  
 
Display posts from previous:  Sort by  
Post new topic Reply to topic  [ 4 posts ] 

All times are UTC + 3 hours


Who is online

Users browsing this forum: No registered users and 1 guest


You cannot post new topics in this forum
You cannot reply to topics in this forum
You cannot edit your posts in this forum
You cannot delete your posts in this forum
You cannot post attachments in this forum

Search for:
Яндекс.Метрика
Powered by phpBB © 2000, 2002, 2005, 2007 phpBB Group