\m/ 80's metal \m/

Информационно-аналитический форум "80 см пыли" (In Search We Trust) "У нас никто никуда не спешит"
Me For You - http://me-4u.com
It is currently 20 Oct 2019

All times are UTC + 3 hours

Spoiler
Chat - temporary registration for foreign users (please leave your application here)







Post new topic Reply to topic  [ 14 posts ] 
Author Message
 
PostPosted: 17 Sep 2010 
Зарегился вот...
Joined: 21 Jun 2010
Posts: 4
Lоcаtion: Сибирь
Name: Андрей
Image

Жанр: Hard Rock
Год выхода альбома: 1985
Год выхода данного диска: 1995
Страна-производитель: Япония
Аудио кодек: FLAC
Тип рипа: image+cue
Битрейт аудио: lossless
Продолжительность: 41:21
Рип: Собственный
Лейбл: Toshiba-EMI
Каталоговый номер: TOCP-3026

Треклист:

01. God Blessed Video (Vai/Bonnet) 3:29
02. Mercy (Vai/Bonnet/Waldo/Shea/Uvena) 4:22
03. Will You Be Home Tonight (Vai/Bonnet/Waldo) 5:01
04. Wire And Wood (Vai/Bonnet) 3:26
05. Desert Diamond (Vai/Bonnet) 4:18
06. Stripper (Vai/Bonnet) 3:52
07. Painted Lover (Vai/Bonnet) 3:22
08. Lighter Shade Of Green (Vai) 0:46
09. Sons And Lovers (Vai/Bonnet) 3:35
10. Skyfire (Vai/Bonnet) 3:53
11. Breaking The Heart Of The City (Vai/Bonnet) 4:58

Состав:

Graham Bonnet - vocals and backing vocals
Steve Vai - guitars and backing vocals
Jimmy Waldo - keyboards and backing vocals
Gary Shea - bass
Jan Uvena - drums, percussion and backing vocals

"Лог"
Exact Audio Copy V0.99 prebeta 4 from 23. January 2008

EAC extraction logfile from 19. June 2010, 10:10

Alcatrazz / Disturbing The Peace

Used drive : ASUS DRW-20B1LT Adapter: 1 ID: 1

Read mode : Secure
Utilize accurate stream : Yes
Defeat audio cache : Yes
Make use of C2 pointers : No

Read offset correction : 6
Overread into Lead-In and Lead-Out : No
Fill up missing offset samples with silence : Yes
Delete leading and trailing silent blocks : No
Null samples used in CRC calculations : Yes
Used interface : Native Win32 interface for Win NT & 2000

Used output format : Internal WAV Routines
Sample format : 44.100 Hz; 16 Bit; Stereo


TOC of the extracted CD

Track | Start | Length | Start sector | End sector
---------------------------------------------------------
1 | 0:00.00 | 3:30.30 | 0 | 15779
2 | 3:30.30 | 4:22.20 | 15780 | 35449
3 | 7:52.50 | 5:03.17 | 35450 | 58191
4 | 12:55.67 | 3:29.18 | 58192 | 73884
5 | 16:25.10 | 4:20.55 | 73885 | 93439
6 | 20:45.65 | 3:53.02 | 93440 | 110916
7 | 24:38.67 | 3:24.05 | 110917 | 126221
8 | 28:02.72 | 0:46.20 | 126222 | 129691
9 | 28:49.17 | 3:37.70 | 129692 | 146036
10 | 32:27.12 | 3:55.00 | 146037 | 163661
11 | 36:22.12 | 4:58.63 | 163662 | 186074


Range status and errors

Selected range

Filename K:\EACrips\Alcatrazz - Disturbing The Peace\Alcatrazz - Disturbing The Peace.wav

Peak level 83.8 %
Range quality 100.0 %
Test CRC BBFC6DB8
Copy CRC BBFC6DB8
Copy OK

No errors occurred


AccurateRip summary

Track 1 accurately ripped (confidence 2) [FB71763C]
Track 2 accurately ripped (confidence 2) [D58CB4B0]
Track 3 accurately ripped (confidence 2) [FB0E2F5F]
Track 4 accurately ripped (confidence 2) [186285CB]
Track 5 accurately ripped (confidence 2) [14C5C7BE]
Track 6 accurately ripped (confidence 2) [1052C6CD]
Track 7 accurately ripped (confidence 2) [84B0C5F2]
Track 8 accurately ripped (confidence 2) [141B8D17]
Track 9 accurately ripped (confidence 2) [A869499D]
Track 10 accurately ripped (confidence 2) [EDEECE1D]
Track 11 accurately ripped (confidence 2) [8007E3D8]

All tracks accurately ripped

End of status report


"Куй"
REM GENRE "Hard Rock"
REM DATE 1985
REM DISCID A309B10B
REM COMMENT "ExactAudioCopy v0.99pb4"
PERFORMER "Alcatrazz"
TITLE "Disturbing The Peace"
FILE "Alcatrazz - Disturbing The Peace.flac" WAVE
TRACK 01 AUDIO
TITLE "God Blessed Video"
PERFORMER "Alcatrazz"
INDEX 01 00:00:00
TRACK 02 AUDIO
TITLE "Mercy"
PERFORMER "Alcatrazz"
INDEX 00 03:29:07
INDEX 01 03:30:30
TRACK 03 AUDIO
TITLE "Will You Be Home Tonight"
PERFORMER "Alcatrazz"
INDEX 00 07:52:40
INDEX 01 07:52:50
TRACK 04 AUDIO
TITLE "Wire And Wood"
PERFORMER "Alcatrazz"
INDEX 00 12:53:57
INDEX 01 12:55:67
TRACK 05 AUDIO
TITLE "Desert Diamond"
PERFORMER "Alcatrazz"
INDEX 00 16:22:30
INDEX 01 16:25:10
TRACK 06 AUDIO
TITLE "Stripper"
PERFORMER "Alcatrazz"
INDEX 00 20:44:07
INDEX 01 20:45:65
TRACK 07 AUDIO
TITLE "Painted Lover"
PERFORMER "Alcatrazz"
INDEX 00 24:37:65
INDEX 01 24:38:67
TRACK 08 AUDIO
TITLE "Lighter Shade Of Green"
PERFORMER "Alcatrazz"
INDEX 00 28:01:45
INDEX 01 28:02:72
TRACK 09 AUDIO
TITLE "Sons And Lovers"
PERFORMER "Alcatrazz"
INDEX 00 28:49:15
INDEX 01 28:49:17
TRACK 10 AUDIO
TITLE "Skyfire"
PERFORMER "Alcatrazz"
INDEX 00 32:24:42
INDEX 01 32:27:12
TRACK 11 AUDIO
TITLE "Breaking The Heart Of The City"
PERFORMER "Alcatrazz"
INDEX 00 36:21:05
INDEX 01 36:22:12


скачать


Top
 Profile  
 
 
PostPosted: 17 Sep 2010 
Хиппей (support team)
User avatar
Joined: 30 Jul 2007
Posts: 114953
Lоcаtion: Киев (Kyiv, UA)
Age: 46
Name: Andrey
:thanx:

Ну, за первый блин :drink:

_________________


Top
 Profile E-mail  
 
 
PostPosted: 29 Sep 2010 
Зарегился вот...
Joined: 21 Jun 2010
Posts: 4
Lоcаtion: Сибирь
Name: Андрей
Смотрю, интереса не вызвало. Несовпадение вкусов налицо. Может это и к лучшему.


Top
 Profile  
 
 
PostPosted: 29 Sep 2010 
дядя Миша
User avatar
Joined: 17 Oct 2008
Posts: 3190
Lоcаtion: USSR
Age: 57
Name: Khy
Та не , просто у всех уже есть. Это ж известнейшая вещь. У меня японец тоже пробегал , но на переиздании.


Top
 Profile  
 
 
PostPosted: 29 Sep 2010 
Прокъмитолист
User avatar
Joined: 12 Aug 2007
Posts: 6627
Lоcаtion: Санктъ-Петербуркъ
Age: 52
Name: Олекъ
AristaRec wrote:
Несовпадение вкусов налицо

как раз налицо совпадение вкусов. просто народ здесь собрался "подготовленный", очень сложно чем-то удивить :pardon:

з.ы. я, если честно, был в полной уверенности, что это очередной релиз "японской" классики от Димы иезуита, даже не сообразил, что у нас появился новый релизер-лосевод. так что велкам, Андрей :drink:

_________________
прокъметол - это музыко, от которово есть прок (ы)


Top
 Profile  
 
 
PostPosted: 30 Sep 2010 
metallpaparazzy
User avatar
Joined: 20 Dec 2009
Posts: 674
Lоcаtion: Днепропетровск
Age: 44
Name: Геннадий
spiralarch wrote:
был в полной уверенности, что это очередной релиз "японской" классики от Димы иезуита

та же хрень :pardon:
а Боннэта мы ценим илюбим :true: в любых составах :meloman: причем, мне лично в данном случае и Вай побоку (впрочем, мне он всегда побоку :nunu: )
а картиночки имеются к ентому лосю? :oops:


Top
 Profile E-mail  
 
 
PostPosted: 30 Sep 2010 
Хиппей (support team)
User avatar
Joined: 30 Jul 2007
Posts: 114953
Lоcаtion: Киев (Kyiv, UA)
Age: 46
Name: Andrey
AristaRec wrote:
Смотрю, интереса не вызвало

Андрюх, а всё очень просто.
Форум-то ориентирован на выполнение запросов и поиск, а лоси без заказа или mp3, это так, второстепенное, хоть и очень полезное дело :thanx:
У нас здесь всё на добровольной основе.
Ну и как выше сказал Олег, у многих давно всё есть, и мало что уже из музыки нужно.

Прощегря, привычная реакция для скромного числа посетителей форума.

_________________


Top
 Profile E-mail  
 
 
PostPosted: 30 Sep 2010 
Зарегился вот...
Joined: 21 Jun 2010
Posts: 4
Lоcаtion: Сибирь
Name: Андрей
О, а я думал, никто не читает, так высказал мысли вслух.
Добавил картинок здесь


Top
 Profile  
 
 
PostPosted: 30 Sep 2010 
Хиппей (support team)
User avatar
Joined: 30 Jul 2007
Posts: 114953
Lоcаtion: Киев (Kyiv, UA)
Age: 46
Name: Andrey
AristaRec wrote:
Добавил картинок

:thanx:

_________________


Top
 Profile E-mail  
 
 
PostPosted: 30 Sep 2010 
metallpaparazzy
User avatar
Joined: 20 Dec 2009
Posts: 674
Lоcаtion: Днепропетровск
Age: 44
Name: Геннадий
о, картиночки клевые, обновлю себе альбомчег :true: :thanx:


Top
 Profile E-mail  
 
 
PostPosted: 23 Aug 2011 
Хиппей (support team)
User avatar
Joined: 30 Jul 2007
Posts: 114953
Lоcаtion: Киев (Kyiv, UA)
Age: 46
Name: Andrey
С удовольствием в который в жизни раз отслушал альбомчик-классику. Очень приятный звук, спасибо огромное :thanx:

_________________


Top
 Profile E-mail  
 
 
PostPosted: 23 Aug 2011 
Хиппей (support team)
User avatar
Joined: 30 Jul 2007
Posts: 114953
Lоcаtion: Киев (Kyiv, UA)
Age: 46
Name: Andrey
Хех, а ссылка то уже швах...
Ща перезалью :pardon:

_________________


Top
 Profile E-mail  
 
 
PostPosted: 24 Aug 2011 
Хиппей (support team)
User avatar
Joined: 30 Jul 2007
Posts: 114953
Lоcаtion: Киев (Kyiv, UA)
Age: 46
Name: Andrey
mirror: MultiUp l Narod

_________________


Top
 Profile E-mail  
 
 
PostPosted: 25 Aug 2011 
А может смените мне статус?..
User avatar
Joined: 24 Dec 2008
Posts: 648
Age: 45
Name: Дмитрий
:thanx:


Top
 Profile  
 
Display posts from previous:  Sort by  
Post new topic Reply to topic  [ 14 posts ] 

All times are UTC + 3 hours


Who is online

Users browsing this forum: No registered users and 1 guest


You cannot post new topics in this forum
You cannot reply to topics in this forum
You cannot edit your posts in this forum
You cannot delete your posts in this forum
You cannot post attachments in this forum

Search for:
Яндекс.Метрика
Powered by phpBB © 2000, 2002, 2005, 2007 phpBB Group