\m/ 80's metal \m/

Информационно-аналитический форум "80 см пыли" (In Search We Trust) "У нас никто никуда не спешит"
Me For You - http://me-4u.com
It is currently 20 Mar 2019

All times are UTC + 3 hours

Spoiler
Chat - temporary registration for foreign users (please leave your application here)







Post new topic Reply to topic  [ 7 posts ] 
Author Message
 
PostPosted: 08 Aug 2010 
Хиппей (support team)
User avatar
Joined: 30 Jul 2007
Posts: 111037
Lоcаtion: Киев (Kyiv, UA)
Age: 45
Name: Andrey
Atomic Clock - 2008 - Atomic Clock [flac]

Image

Genre: Progressive Rock/Metal
Location: USA
Format: flac+cue+log+scans
Size: 306.9 Mb


Line-up:
Philip Gregory - Vocals
Kicho Forrest - Guitar (Threshold (USA))
Rob Hazen - Bass
Keith Brown - Keyboards
Miah Knight - Drums (Nobody Famous, World Cast, Soul Patrol, Chill Factor)

    1. The Princess - 05:28
    2. Little Sister - 03:45
    3. Eternity - 04:42
    4. Draw the Line - 05:54
    5. Snakes - 03:06
    6. Soldiers Fall - 03:48
    7. These Walls - 09:04
    8. Black And White - 02:52

    TPT: 38:43

Альбом еще не слушал... :oops:

MultiUp l Narod

Thanx to Exploded from MMT :thanx:

log
EAC extraction logfile from 3. April 2009, 19:30 for CD
Atomic Clock / Retrospect

Used drive : HL-DT-STDVDRAM GH20NS10 Adapter: 0 ID: 1
Read mode : Secure with NO C2, accurate stream, disable cache
Read offset correction : 667
Overread into Lead-In and Lead-Out : No

Used output format : C:\Program Files\Exact Audio Copy\FLAC.EXE (User Defined Encoder)
32 kBit/s
Additional command line options : -6 -V %s

Other options :
Fill up missing offset samples with silence : Yes
Delete leading and trailing silent blocks : No
Native Win32 interface for Win NT & 2000


Range status and errors
Selected range
Filename P:\Atomic Clock - Retrospect 2008.flac.wav

Peak level 100.0 %
Range quality 99.9 %
CRC 584764B4
Copy OK

No errors occured

End of status report


cue
PERFORMER "Atomic Clock"
TITLE "Retrospect"
FILE "Atomic Clock - Retrospect 2008.flac" WAVE
TRACK 01 AUDIO
TITLE "The Princess"
PERFORMER "Atomic Clock"
FLAGS DCP
INDEX 01 00:00:00
TRACK 02 AUDIO
TITLE "Little Sisters"
PERFORMER "Atomic Clock"
FLAGS DCP
INDEX 00 05:26:04
INDEX 01 05:28:04
TRACK 03 AUDIO
TITLE "Eternity"
PERFORMER "Atomic Clock"
FLAGS DCP
INDEX 00 09:11:36
INDEX 01 09:13:36
TRACK 04 AUDIO
TITLE "Snakes"
PERFORMER "Atomic Clock"
FLAGS DCP
INDEX 00 13:53:48
INDEX 01 13:55:48
TRACK 05 AUDIO
TITLE "Draw the Line"
PERFORMER "Atomic Clock"
FLAGS DCP
INDEX 00 19:48:15
INDEX 01 19:50:15
TRACK 06 AUDIO
TITLE "Soldiers Fall"
PERFORMER "Atomic Clock"
FLAGS DCP
INDEX 00 22:54:34
INDEX 01 22:56:34
TRACK 07 AUDIO
TITLE "These Walls"
PERFORMER "Atomic Clock"
FLAGS DCP
INDEX 00 26:43:18
INDEX 01 26:45:18
TRACK 08 AUDIO
TITLE "Black and White"
PERFORMER "Atomic Clock"
FLAGS DCP
INDEX 00 35:48:14
INDEX 01 35:50:14

_________________


Top
 Profile E-mail  
 
 
PostPosted: 24 Aug 2010 
Работнечег
User avatar
Joined: 28 Aug 2007
Posts: 5753
Lоcаtion: г. Москва
Age: 29
Name: Дима
Судя по myspace вроде неплохой музон.Пожалуй скачаю и переведу в мп3 320, лося оставлять неохота :smile: Спасибо Андрюх!


Top
 Profile E-mail  
 
 
PostPosted: 24 Aug 2010 
Хиппей (support team)
User avatar
Joined: 30 Jul 2007
Posts: 111037
Lоcаtion: Киев (Kyiv, UA)
Age: 45
Name: Andrey
church wrote:
Пожалуй скачаю и переведу в мп3 320, лося оставлять неохота

:shok: Вот так вот, серпом по яйцам... :fingal:


зы. Сегодня попробую отслушать альбом...
ыз. Не помню уже, кто ж его заказывал...

_________________


Top
 Profile E-mail  
 
 
PostPosted: 24 Aug 2010 
Работнечег
User avatar
Joined: 28 Aug 2007
Posts: 5753
Lоcаtion: г. Москва
Age: 29
Name: Дима
Scatterbrain wrote:
church wrote:
Пожалуй скачаю и переведу в мп3 320, лося оставлять неохота

:shok: Вот так вот, серпом по яйцам... :fingal:

Именно так :true: А куда деваться, время такое, опять места на винте мало :pardon:


Top
 Profile E-mail  
 
 
PostPosted: 24 Aug 2010 
Хиппей (support team)
User avatar
Joined: 30 Jul 2007
Posts: 111037
Lоcаtion: Киев (Kyiv, UA)
Age: 45
Name: Andrey
church wrote:
опять места на винте мало

Бэкапь на Эдрайве временно. Но не жертвовать же ради места качеством :shok:

_________________


Top
 Profile E-mail  
 
 
PostPosted: 24 Aug 2010 
Power Metal Maniac
User avatar
Joined: 09 Aug 2008
Posts: 6638
Lоcаtion: Москва
Age: 41
Name: Егор
вроде де не было у меня. не забыть скачать :thanx:

_________________
Long Live Metal!


Top
 Profile  
 
 
PostPosted: 26 Aug 2010 
Хиппей (support team)
User avatar
Joined: 30 Jul 2007
Posts: 111037
Lоcаtion: Киев (Kyiv, UA)
Age: 45
Name: Andrey
Два раза прослушал - норм, нравится :meloman:

Понятное дело, что к новомодному прогу у меня почти такое же отношение, как и к паверу.
Здесь одно из двух - или цепляет группа, или нет. Или есть в её звучании и вокалных партиях изюминка, отличие от многих других, или нет.
В данном случае имеем обычный прог-металлический продукт. Качественно сыгранный и записанный, с хорошими вокальными партиями, но... это уже я лично не раз слушал и слышал. Короче, стандартный альбом без провалом и взлётов, ровный, как нулевой размер груди у пластмассовой куклы.
Группа абсолютно ничем не удивила, но и не позлила.
Обычный серяднячок, потому и оценка чуть выше средней.

6/10

Есть ли здесь павер? Да, и весьма прилично есть, он просто не может не быть =) Но в меру, как ни странно.
Есть ли хиты? Угу, но не при первом прослушивание. Альбом требует более тщательного изучения, но, пардон, у меня времени в обрез.
Обрез это не огнестрельное оружие, а фразеологизм. Словосочетание. Не имеет в данном случае никакого отношения к обрезанию.

_________________


Top
 Profile E-mail  
 
Display posts from previous:  Sort by  
Post new topic Reply to topic  [ 7 posts ] 

All times are UTC + 3 hours


Who is online

Users browsing this forum: No registered users and 2 guests


You cannot post new topics in this forum
You cannot reply to topics in this forum
You cannot edit your posts in this forum
You cannot delete your posts in this forum
You cannot post attachments in this forum

Search for:
Яндекс.Метрика
Powered by phpBB © 2000, 2002, 2005, 2007 phpBB Group