\m/ 80's metal \m/

Информационно-аналитический форум "80 см пыли" (In Search We Trust) "У нас никто никуда не спешит"
Me For You - http://me-4u.com
It is currently 11 Dec 2018

All times are UTC + 3 hours

Spoiler
Chat - temporary registration for foreign users (please leave your application here)







Post new topic Reply to topic  [ 9 posts ] 
Author Message
 
PostPosted: 07 Jul 2010 
ыыыы
User avatar
Joined: 17 May 2009
Posts: 952
Lоcаtion: Пушкино, МО
Age: 40
Name: Дмитрий
Image


Жанр: Heavy Metal
Происхождение исполнителя: Германия
Год издания: 1990
Год издания данного носителя: 1990
Страна-производитель носителя: Япония
Аудио кодек: FLAC
Тип рипа: image+.cue
Битрейт аудио: lossless
Продолжительность: 45:23 + 53:50
Рип: Собственный
Лейбл: BREEZE/EPIC
Каталоговый номер: ESCA-5169~70

Диск1
Матрица: DP-4004 1 (SONY)

Треклист:
1. Metal Heart 05:25
2. Breaker 03:40
3. Screaming for a Love-Bite 04:22
4. Up to the Limit 04:45
5. Living for Tonight 03:35
6. Princess of the Dawn 07:50
7. Neon Nights 08:17
8. Burning 07:29

"Куй"
REM GENRE Metal
REM DATE 1990
REM DISCID 730AA308
REM COMMENT "ExactAudioCopy v0.99pb5"
PERFORMER "Accept"
TITLE "Staying A Life (DISC 1) [ESCA-5169~70]"
FILE "Accept - Staying A Life (DISC 1) [ESCA-5169~70].flac" WAVE
TRACK 01 AUDIO
TITLE "Metal Heart"
PERFORMER "Accept"
INDEX 01 00:00:00
TRACK 02 AUDIO
TITLE "Breaker"
PERFORMER "Accept"
INDEX 01 05:25:20
TRACK 03 AUDIO
TITLE "Screaming For A Love-Bite"
PERFORMER "Accept"
INDEX 01 09:05:42
TRACK 04 AUDIO
TITLE "Up To The Limit"
PERFORMER "Accept"
INDEX 01 13:27:20
TRACK 05 AUDIO
TITLE "Living For Tonight"
PERFORMER "Accept"
INDEX 01 18:12:32
TRACK 06 AUDIO
TITLE "Princess Of The Dawn"
PERFORMER "Accept"
INDEX 01 21:47:62
TRACK 07 AUDIO
TITLE "Neon Nights"
PERFORMER "Accept"
INDEX 01 29:37:25
TRACK 08 AUDIO
TITLE "Burning"
PERFORMER "Accept"
INDEX 01 37:54:12


"Лог"
Exact Audio Copy V0.99 prebeta 5 from 4. May 2009

Отчёт EAC об извлечении, выполненном 1. мая 2010, 19:35

Accept / Staying A Life (DISC 1) [ESCA-5169~70]

Дисковод: MATSHITADVD-RAM UJ-850S Adapter: 0 ID: 0

Режим чтения : Достоверность
Использование точного потока : Да
Отключение кэша аудио : Да
Использование указателей C2 : Нет

Коррекция смещения при чтении : 102
Способность читать области Lead-in и Lead-out : Нет
Заполнение пропущенных сэмплов тишиной : Да
Удаление блоков с тишиной в начале и конце : Нет
При вычислениях CRC использовались нулевые сэмплы : Да
Интерфейс : Установленный внешний ASPI-интерфейс

Выходной формат : Пользовательский кодировщик
Выбранный битрейт : 128 kBit/s
Качество : Высокий
Добавление ID3-тэга : Нет
Утилита сжатия : C:\Program Files\Exact Audio Copy\Flac\flac.exe
Дополнительные параметры : -6 -V -T "artist=%a" -T "title=%t" -T "album=%g" -T "date=%y" -T "tracknumber=%n" -T "genre=%m" -T "comment=EAC 0.99beta5 / FLAC 1.1.0 q6" %s


TOC извлечённого CD

Трек | Старт | Длительность | Начальный сектор | Конечный сектор
---------------------------------------------------------------------
1 | 0:00.00 | 5:25.20 | 0 | 24394
2 | 5:25.20 | 3:40.22 | 24395 | 40916
3 | 9:05.42 | 4:21.53 | 40917 | 60544
4 | 13:27.20 | 4:45.12 | 60545 | 81931
5 | 18:12.32 | 3:35.30 | 81932 | 98086
6 | 21:47.62 | 7:49.38 | 98087 | 133299
7 | 29:37.25 | 8:16.62 | 133300 | 170561
8 | 37:54.12 | 7:28.63 | 170562 | 204224


Характеристики диапазона извлечения и сообщения об ошибках

Выбранный диапазон

Имя файла Y:\Музыка\Accept\1990 Staying A Life\Accept - Staying A Life (DISC 1) [ESCA-5169~70].wav

Пиковый уровень 87.2 %
Качество диапазона 100.0 %
CRC копии D35ABFCD
Копирование... OK

Ошибок не произошло


AccurateRip: сводка

Трек 1 нет в базе данных
Трек 2 нет в базе данных
Трек 3 нет в базе данных
Трек 4 нет в базе данных
Трек 5 нет в базе данных
Трек 6 нет в базе данных
Трек 7 нет в базе данных
Трек 8 нет в базе данных

Ни одного трека нет в базе AccurateRip

Конец отчёта


Диск2
Матрица: DP-4017 1 (SONY)

Треклист:
1. Head Over Heels 05:49
2. Guitar Solo Wolf 04:27
3. Restless and Wild 02:34
4. Son of a Bitch 02:35
5. London Leatherboys 03:54
6. Love Child 05:01
7. Flash Rockin' Man 06:31
8. Dogs on Leads 05:52
9. Fast as a Shark 05:26
10. Balls to the Wall 10:32
11. Outro (Bound to Fail) 01:09

"Куй"
REM GENRE Metal
REM DATE 1990
REM DISCID 7D0C9E0B
REM COMMENT "ExactAudioCopy v0.99pb5"
PERFORMER "Accept"
TITLE "Staying A Life (DISC 2) [ESCA-5169~70]"
FILE "Accept - Staying A Life (DISC 2) [ESCA-5169~70].flac" WAVE
TRACK 01 AUDIO
TITLE "Head Over Heels"
PERFORMER "Accept"
INDEX 01 00:00:00
TRACK 02 AUDIO
TITLE "Guitar Solo Wolf"
PERFORMER "Accept"
INDEX 01 05:48:42
TRACK 03 AUDIO
TITLE "Restless And Wild"
PERFORMER "Accept"
INDEX 01 10:15:37
TRACK 04 AUDIO
TITLE "Son Of A Bitch"
PERFORMER "Accept"
INDEX 01 12:49:35
TRACK 05 AUDIO
TITLE "London Leatherboys"
PERFORMER "Accept"
INDEX 01 15:24:00
TRACK 06 AUDIO
TITLE "Love Child"
PERFORMER "Accept"
INDEX 01 19:18:00
TRACK 07 AUDIO
TITLE "Flash Rockin' Man"
PERFORMER "Accept"
INDEX 01 24:19:12
TRACK 08 AUDIO
TITLE "Dogs On Leads"
PERFORMER "Accept"
INDEX 00 29:27:30
INDEX 01 30:50:45
TRACK 09 AUDIO
TITLE "Fast As A Shark"
PERFORMER "Accept"
INDEX 01 36:43:05
TRACK 10 AUDIO
TITLE "Balls To The Wall"
PERFORMER "Accept"
INDEX 00 40:51:10
INDEX 01 42:09:37
TRACK 11 AUDIO
TITLE "Outro (Bound To Fail)"
PERFORMER "Accept"
INDEX 00 52:27:57
INDEX 01 52:41:05


"Лог"
Exact Audio Copy V0.99 prebeta 5 from 4. May 2009

Отчёт EAC об извлечении, выполненном 1. мая 2010, 18:46

Accept / Staying A Life (DISC 2) [ESCA-5169~70]

Дисковод: MATSHITADVD-RAM UJ-850S Adapter: 0 ID: 0

Режим чтения : Достоверность
Использование точного потока : Да
Отключение кэша аудио : Да
Использование указателей C2 : Нет

Коррекция смещения при чтении : 102
Способность читать области Lead-in и Lead-out : Нет
Заполнение пропущенных сэмплов тишиной : Да
Удаление блоков с тишиной в начале и конце : Нет
При вычислениях CRC использовались нулевые сэмплы : Да
Интерфейс : Установленный внешний ASPI-интерфейс

Выходной формат : Пользовательский кодировщик
Выбранный битрейт : 128 kBit/s
Качество : Высокий
Добавление ID3-тэга : Нет
Утилита сжатия : C:\Program Files\Exact Audio Copy\Flac\flac.exe
Дополнительные параметры : -6 -V -T "artist=%a" -T "title=%t" -T "album=%g" -T "date=%y" -T "tracknumber=%n" -T "genre=%m" -T "comment=EAC 0.99beta5 / FLAC 1.1.0 q6" %s


TOC извлечённого CD

Трек | Старт | Длительность | Начальный сектор | Конечный сектор
---------------------------------------------------------------------
1 | 0:00.00 | 5:48.42 | 0 | 26141
2 | 5:48.42 | 4:26.70 | 26142 | 46161
3 | 10:15.37 | 2:33.73 | 46162 | 57709
4 | 12:49.35 | 2:34.40 | 57710 | 69299
5 | 15:24.00 | 3:54.00 | 69300 | 86849
6 | 19:18.00 | 5:01.12 | 86850 | 109436
7 | 24:19.12 | 6:31.33 | 109437 | 138794
8 | 30:50.45 | 5:52.35 | 138795 | 165229
9 | 36:43.05 | 5:26.32 | 165230 | 189711
10 | 42:09.37 | 10:31.43 | 189712 | 237079
11 | 52:41.05 | 1:09.32 | 237080 | 242286


Характеристики диапазона извлечения и сообщения об ошибках

Выбранный диапазон

Имя файла Y:\Музыка\Accept\1990 Staying A Life\Accept - Staying A Life (DISC 2) [ESCA-5169~70].wav

Пиковый уровень 96.6 %
Качество диапазона 100.0 %
CRC копии D5F97D52
Копирование... OK

Ошибок не произошло


AccurateRip: сводка

Трек 1 точное извлечение (доверие 1) [C176235B]
Трек 2 точное извлечение (доверие 1) [C4EED0F1]
Трек 3 точное извлечение (доверие 1) [75D3A5F8]
Трек 4 точное извлечение (доверие 1) [963C9B09]
Трек 5 точное извлечение (доверие 1) [EC16BEC1]
Трек 6 точное извлечение (доверие 1) [8811C86F]
Трек 7 точное извлечение (доверие 1) [D9DAE902]
Трек 8 точное извлечение (доверие 1) [4627C1C0]
Трек 9 точное извлечение (доверие 1) [8F60C545]
Трек 10 точное извлечение (доверие 1) [B0CF35AB]
Трек 11 точное извлечение (доверие 1) [9A19BF00]

Все треки извлечены точно

Конец отчёта


Состав:
Vocals: Udo Dirkschneider
Guitars: Jörg Fischer
Guitars: Wolf Hoffmann
Bass: Peter Baltes
Drums: Stefan Kaufmann

ESCA-5169~70

_________________
Витасу до Даймонда как Алсу до Руссоса | При переразмещении - спрашивать разрешение!!


Top
 Profile  
 
 
PostPosted: 07 Jul 2010 
Персональный статус
Joined: 14 May 2010
Posts: 236
Age: 37
Name: Денис
Класс!!! :meloman: Мне кажется или звук просто супер? :punko:


Top
 Profile  
 
 
PostPosted: 08 Jul 2010 
ыыыы
User avatar
Joined: 17 May 2009
Posts: 952
Lоcаtion: Пушкино, МО
Age: 40
Name: Дмитрий
мой любимый концертник! если бы не он- не любил бы ни Удо ни Акцепт :fingal:

_________________
Витасу до Даймонда как Алсу до Руссоса | При переразмещении - спрашивать разрешение!!


Top
 Profile  
 
 
PostPosted: 08 Jul 2010 
Пионэръ
User avatar
Joined: 02 Jul 2010
Posts: 45
Lоcаtion: Сочи
Age: 46
Name: Борис
UDO :ura: :mir: :ura: :mir: :ura: :mir:
Лучше Udo только Dirkschneider :true: :true:


Top
 Profile E-mail  
 
 
PostPosted: 08 Jul 2010 
ыыыы
User avatar
Joined: 17 May 2009
Posts: 952
Lоcаtion: Пушкино, МО
Age: 40
Name: Дмитрий
Ок, щас выложу

_________________
Витасу до Даймонда как Алсу до Руссоса | При переразмещении - спрашивать разрешение!!


Top
 Profile  
 
 
PostPosted: 12 Jul 2010 
Motörheadache
User avatar
Joined: 04 Feb 2010
Posts: 1294
Lоcаtion: Впереди- горы,позади-степи
Age: 45
Name: Александр
Оба-на....
Всё собирался-собирался с торрентофф тянуть,а тут на тебе .. :true: :true: :true:
:thanx:

_________________
Eine Nation, Ein Land, Eine Schnaps!

Наш священный долг:защищать Родину,и соблюдать правила личной гигиены....!


Top
 Profile E-mail  
 
 
PostPosted: 12 Jul 2010 
ыыыы
User avatar
Joined: 17 May 2009
Posts: 952
Lоcаtion: Пушкино, МО
Age: 40
Name: Дмитрий
так с торрентов он отсюда и взялся)) по крайней мере на рутракере :nunu:

_________________
Витасу до Даймонда как Алсу до Руссоса | При переразмещении - спрашивать разрешение!!


Top
 Profile  
 
 
PostPosted: 12 Jul 2010 
Motörheadache
User avatar
Joined: 04 Feb 2010
Posts: 1294
Lоcаtion: Впереди- горы,позади-степи
Age: 45
Name: Александр
iezuit wrote:
так с торрентов он отсюда и взялся)) по крайней мере на рутракере

Дык я не с рутрекера собиралсо.. :crazy:
А потом передумал..А тут ты вездесущий как Дэд Мороззз с подарками ! :crazy: :drink:

_________________
Eine Nation, Ein Land, Eine Schnaps!

Наш священный долг:защищать Родину,и соблюдать правила личной гигиены....!


Top
 Profile E-mail  
 
 
PostPosted: 12 Jul 2010 
ыыыы
User avatar
Joined: 17 May 2009
Posts: 952
Lоcаtion: Пушкино, МО
Age: 40
Name: Дмитрий
alexx1973
Dead Moroz :crazy:

_________________
Витасу до Даймонда как Алсу до Руссоса | При переразмещении - спрашивать разрешение!!


Top
 Profile  
 
Display posts from previous:  Sort by  
Post new topic Reply to topic  [ 9 posts ] 

All times are UTC + 3 hours


Who is online

Users browsing this forum: No registered users and 1 guest


You cannot post new topics in this forum
You cannot reply to topics in this forum
You cannot edit your posts in this forum
You cannot delete your posts in this forum
You cannot post attachments in this forum

Search for:
Яндекс.Метрика
Powered by phpBB © 2000, 2002, 2005, 2007 phpBB Group