\m/ 80's metal \m/

Информационно-аналитический форум "80 см пыли" (In Search We Trust) "У нас никто никуда не спешит"
Железнодорожная биржа - RailAgent
It is currently 18 Aug 2018

All times are UTC + 3 hours

Spoiler
Chat - temporary registration for foreign users (please leave your application here)







Post new topic Reply to topic  [ 3 posts ] 
Author Message
 
PostPosted: 31 May 2010 
ыыыы
User avatar
Joined: 17 May 2009
Posts: 952
Lоcаtion: Пушкино, МО
Age: 39
Name: Дмитрий
Image


Жанр: Heavy Metal
Происхождение исполнителя: Германия
Год издания: 1989
Год издания данного носителя: 1989
Страна-производитель носителя: Япония
Аудио кодек: FLAC
Тип рипа: image+.cue
Битрейт аудио: lossless
Продолжительность: 45:52
Рип: Собственный
Лейбл: EMI
Каталоговый номер: CP32-5873
Матрица: CP32-5873 1M TO (TOSHIBA)

Треклист:
1. Living in a World 03:53
2. Kingdom of the Night 03:52
3. Never Say Never 03:42
4. Fire and Ice 04:01
5. Young Souls 03:17
6. For a Song 04:04
7. Love is Like an Ocean 03:24
8. The Moon 03:40
9. Tears of the Trees 04:11
10. Just One Night 03:14
11. Kings Made of Steel 03:33
12. Living in a World (extended version) 05:08

"Куй"
REM GENRE "Hard Rock"
REM DATE 1989
REM DISCID AD0AC50C
REM COMMENT "ExactAudioCopy v0.99pb5"
PERFORMER "Axxis"
TITLE "Kingdom Of The Night [CP32-5873]"
FILE "Axxis - Kingdom Of The Night [CP32-5873].flac" WAVE
TRACK 01 AUDIO
TITLE "Living In A World"
PERFORMER "Axxis"
INDEX 01 00:00:00
TRACK 02 AUDIO
TITLE "Kingdom Of The Night"
PERFORMER "Axxis"
INDEX 00 03:52:35
INDEX 01 03:52:60
TRACK 03 AUDIO
TITLE "Never Say Never"
PERFORMER "Axxis"
INDEX 00 07:43:52
INDEX 01 07:44:40
TRACK 04 AUDIO
TITLE "Fire And Ice"
PERFORMER "Axxis"
INDEX 00 11:25:70
INDEX 01 11:26:25
TRACK 05 AUDIO
TITLE "Young Souls"
PERFORMER "Axxis"
INDEX 00 15:25:72
INDEX 01 15:27:10
TRACK 06 AUDIO
TITLE "For A Song"
PERFORMER "Axxis"
INDEX 00 18:42:02
INDEX 01 18:43:67
TRACK 07 AUDIO
TITLE "Love Is Like An Ocean"
PERFORMER "Axxis"
INDEX 00 22:46:35
INDEX 01 22:47:62
TRACK 08 AUDIO
TITLE "The Moon"
PERFORMER "Axxis"
INDEX 00 26:10:70
INDEX 01 26:12:10
TRACK 09 AUDIO
TITLE "Tears Of The Trees"
PERFORMER "Axxis"
INDEX 00 29:51:70
INDEX 01 29:52:27
TRACK 10 AUDIO
TITLE "Just One Night"
PERFORMER "Axxis"
INDEX 00 34:02:32
INDEX 01 34:03:10
TRACK 11 AUDIO
TITLE "Kings Made Of Steel"
PERFORMER "Axxis"
INDEX 00 37:15:72
INDEX 01 37:16:57
TRACK 12 AUDIO
TITLE "Living In A World (Extended Version)"
PERFORMER "Axxis"
INDEX 00 40:48:50
INDEX 01 40:49:35


"Лог"
Exact Audio Copy V0.99 prebeta 5 from 4. May 2009

Отчёт EAC об извлечении, выполненном 31. мая 2010, 21:10

Axxis / Kingdom Of The Night [CP32-5873]

Дисковод: MATSHITADVD-RAM UJ-850S Adapter: 0 ID: 0

Режим чтения : Достоверность
Использование точного потока : Да
Отключение кэша аудио : Да
Использование указателей C2 : Нет

Коррекция смещения при чтении : 102
Способность читать области Lead-in и Lead-out : Нет
Заполнение пропущенных сэмплов тишиной : Да
Удаление блоков с тишиной в начале и конце : Нет
При вычислениях CRC использовались нулевые сэмплы : Да
Интерфейс : Установленный внешний ASPI-интерфейс

Выходной формат : Пользовательский кодировщик
Выбранный битрейт : 128 kBit/s
Качество : Высокий
Добавление ID3-тэга : Нет
Утилита сжатия : C:\Program Files\Exact Audio Copy\Flac\flac.exe
Дополнительные параметры : -6 -V -T "artist=%a" -T "title=%t" -T "album=%g" -T "date=%y" -T "tracknumber=%n" -T "genre=%m" -T "comment=EAC 0.99beta5 / FLAC 1.1.0 q6" %s


TOC извлечённого CD

Трек | Старт | Длительность | Начальный сектор | Конечный сектор
---------------------------------------------------------------------
1 | 0:00.00 | 3:52.60 | 0 | 17459
2 | 3:52.60 | 3:51.55 | 17460 | 34839
3 | 7:44.40 | 3:41.60 | 34840 | 51474
4 | 11:26.25 | 4:00.60 | 51475 | 69534
5 | 15:27.10 | 3:16.57 | 69535 | 84291
6 | 18:43.67 | 4:03.70 | 84292 | 102586
7 | 22:47.62 | 3:24.23 | 102587 | 117909
8 | 26:12.10 | 3:40.17 | 117910 | 134426
9 | 29:52.27 | 4:10.58 | 134427 | 153234
10 | 34:03.10 | 3:13.47 | 153235 | 167756
11 | 37:16.57 | 3:32.53 | 167757 | 183709
12 | 40:49.35 | 5:08.37 | 183710 | 206846


Характеристики диапазона извлечения и сообщения об ошибках

Выбранный диапазон

Имя файла Y:\Музыка\Axxis\1989 Kingdom Of The Night\Axxis - Kingdom Of The Night [CP32-5873].wav

Пиковый уровень 85.4 %
Качество диапазона 100.0 %
CRC копии DCF0439D
Копирование... OK

Ошибок не произошло


AccurateRip: сводка

Трек 1 нет в базе данных
Трек 2 нет в базе данных
Трек 3 нет в базе данных
Трек 4 нет в базе данных
Трек 5 нет в базе данных
Трек 6 нет в базе данных
Трек 7 нет в базе данных
Трек 8 нет в базе данных
Трек 9 нет в базе данных
Трек 10 нет в базе данных
Трек 11 нет в базе данных
Трек 12 нет в базе данных

Ни одного трека нет в базе AccurateRip

Конец отчёта


Состав:
Vocals and Guitars: Bernhard Weiss
Guitars: Walter Pietsch
Bass: Werner Kleinhaus
Drums: Richard Michalski

Narod

_________________
Витасу до Даймонда как Алсу до Руссоса | При переразмещении - спрашивать разрешение!!


Top
 Profile  
 
 
PostPosted: 31 May 2010 
труъ антисионист
User avatar
Joined: 01 Aug 2007
Posts: 4541
Lоcаtion: Откуда и большинство из нас
Age: 37
Name: Дядя Вова
Хорошая группа, альбом тоже, но меня просто убивает вокалист в этой банде :crazy:

_________________
Image
Image


Top
 Profile  
 
 
PostPosted: 04 Jun 2010 
Персональный статус
Joined: 14 May 2010
Posts: 236
Age: 36
Name: Денис
да, вокалист своеобразный.... но если прислушаться то нормально. альбом хороший.


Top
 Profile  
 
Display posts from previous:  Sort by  
Post new topic Reply to topic  [ 3 posts ] 

All times are UTC + 3 hours


Who is online

Users browsing this forum: No registered users and 1 guest


You cannot post new topics in this forum
You cannot reply to topics in this forum
You cannot edit your posts in this forum
You cannot delete your posts in this forum
You cannot post attachments in this forum

Search for:
Яндекс.Метрика
Powered by phpBB © 2000, 2002, 2005, 2007 phpBB Group