\m/ 80's metal \m/

Информационно-аналитический форум "80 см пыли" (In Search We Trust) "У нас никто никуда не спешит"
Me For You - http://me-4u.com
It is currently 20 Oct 2019

All times are UTC + 3 hours

Spoiler
Chat - temporary registration for foreign users (please leave your application here)







Post new topic Reply to topic  [ 6 posts ] 
Author Message
 
PostPosted: 27 May 2010 
metallpaparazzy
User avatar
Joined: 20 Dec 2009
Posts: 674
Lоcаtion: Днепропетровск
Age: 44
Name: Геннадий
Image

Anacrusis - Reason

Full-length, Metal Blade Records
February 16th, 1990

Lineup:
Kenn Nardi - vocals, guitar
Kevin Heidbreder - guitar
John Emery - bass
Mike Owen - drums

The European release on Active Records featured different artwork, with some
similarities to what became the Manic Impressions cover.

CD bonus tracks:
11. Killing My Mind [5:53]
12. Injustice [5:39]

1. Stop Me 06:17
2. Terrified 04:55
3. Not Forgotten 05:51
4. Wrong 05:40
5. Silent Crime 04:51
6. Misshapen Intent 04:25
7. Afraid to Feel 06:25
8. Child Inside 04:26
9. Vital 05:10
10. Quick to Doubt 04:37

Total playing time 52:37

cue
REM GENRE "Thrash Metal"
REM DATE 1990
REM DISCID A80F090C
REM COMMENT "ExactAudioCopy v0.95b4"
PERFORMER "Anacrusis"
TITLE "Reason "
FILE "Anacrusis - Reason .wav" WAVE
TRACK 01 AUDIO
TITLE "Stop Me"
PERFORMER "Anacrusis"
INDEX 00 00:00:00
INDEX 01 00:00:32
TRACK 02 AUDIO
TITLE "Terrified"
PERFORMER "Anacrusis"
INDEX 01 06:17:32
TRACK 03 AUDIO
TITLE "Not Forgotten"
PERFORMER "Anacrusis"
INDEX 01 11:12:25
TRACK 04 AUDIO
TITLE "Wrong"
PERFORMER "Anacrusis"
INDEX 01 17:03:40
TRACK 05 AUDIO
TITLE "Silent Crime"
PERFORMER "Anacrusis"
INDEX 01 22:43:47
TRACK 06 AUDIO
TITLE "Misshapen Intent"
PERFORMER "Anacrusis"
INDEX 01 27:34:55
TRACK 07 AUDIO
TITLE "Afraid to Feel"
PERFORMER "Anacrusis"
INDEX 01 31:59:02
TRACK 08 AUDIO
TITLE "Child Inside"
PERFORMER "Anacrusis"
INDEX 01 38:24:20
TRACK 09 AUDIO
TITLE " Vital"
PERFORMER "Anacrusis"
INDEX 01 42:50:57
TRACK 10 AUDIO
TITLE "Quick to Doubt "
PERFORMER "Anacrusis"
INDEX 01 48:00:17
TRACK 11 AUDIO
TITLE "Killing My Mind"
PERFORMER "Anacrusis"
INDEX 01 52:37:45
TRACK 12 AUDIO
TITLE "Injustice"
PERFORMER "Anacrusis"
INDEX 01 58:30:27


log
Отчёт EAC об извлечении, выполненном 27. мая 2010, 2:03 для диска:
Anacrusis / Reason

Дисковод: Optiarc DVD RW AD-7170S Adapter: 1 ID: 1
Режим чтения: Достоверный (C2: нет, Точный поток: да, Отключение кэша: да)
Коррекция смещения при чтении: 48
Способность читать области Lead-in и Lead-out : Нет

Выходной формат: Внутренние WAV-операции
44.100 Гц; 16 бит; стерео

Другие параметры:
Заполнение пропущенных сэмплов тишиной : Да
Удаление блоков с тишиной в начале и конце : Нет
Установленный внешний ASPI-интерфейс


Характеристики диапазона извлечения и сообщения об ошибках
Выбранный диапазон
Имя файла C:\Documents and Settings\Admin\Рабочий стол\ЛОСИНАЯ ФЕРМА\МОИ ЛОСИ\ANACRUSIS\Anacrusis - Reason .wav

Пиковый уровень 100.0 %
Качество диапазона 99.9 %
CRC 43FFC13D
Копирование... OK

Ошибок не произошло

Конец отчёта


http://www.multiupload.com/9UPMWLF51Y (flac)
http://www.multiupload.com/6DQJKHTW65 [320]

Попался на балке, но учитывая затруднительное финансовое положение, приобрести сей цд не получаиццо... :cry: поэтому придется довольствоватся лосем. картинки опять, как с Самсоном, пришлось снимать фотиком. :pardon: (кому не нравится -- можно прибить) :fingal:
А музончик интересный! :true: мне такие зэхеры в кайф :meloman:


Top
 Profile E-mail  
 
 
PostPosted: 27 May 2010 
А может смените мне статус?..
User avatar
Joined: 17 Jan 2008
Posts: 897
Lоcаtion: Пенза
Age: 42
Name: Денис
:true: :true: :true:
наверное есть у всех...но от этого альбом хуже не становится!!!
:true: :true: :true:


Top
 Profile  
 
 
PostPosted: 28 May 2010 
metallpaparazzy
User avatar
Joined: 20 Dec 2009
Posts: 674
Lоcаtion: Днепропетровск
Age: 44
Name: Геннадий
Вот как бывает
klod77 wrote:
наверное есть у всех...


а я для себя только открыл енту банду :pardon:

...а сколько ещо интересного музла в природе...


Top
 Profile E-mail  
 
 
PostPosted: 30 May 2010 
Работнечег
User avatar
Joined: 28 Aug 2007
Posts: 6035
Lоcаtion: г. Москва
Age: 30
Name: Дима
Группа одна из любимых! Альбом уже есть, но всё равно спасибо! :true:


Top
 Profile E-mail  
 
 
PostPosted: 23 Nov 2017 
Доктор энтомологии
User avatar
Joined: 22 Jan 2009
Posts: 9927
Lоcаtion: Даугавпилс
Age: 44
Name: Алексей
По форумному поиску, которым неудобно пользоваться, это, вроде, единственная тема по такой клёвой банде как Anacrusis ?
Около-анакрузисная болтовня есть тут в теме новогодней за 2013 год :arrow: viewtopic.php?f=30&t=12016&start=20


Top
 Profile  
 
 
PostPosted: 23 Nov 2017 
Хиппей (support team)
User avatar
Joined: 30 Jul 2007
Posts: 114953
Lоcаtion: Киев (Kyiv, UA)
Age: 46
Name: Andrey
Ага, соединю скоро :kro:

_________________


Top
 Profile E-mail  
 
Display posts from previous:  Sort by  
Post new topic Reply to topic  [ 6 posts ] 

All times are UTC + 3 hours


Who is online

Users browsing this forum: No registered users and 1 guest


You cannot post new topics in this forum
You cannot reply to topics in this forum
You cannot edit your posts in this forum
You cannot delete your posts in this forum
You cannot post attachments in this forum

Search for:
Яндекс.Метрика
cron
Powered by phpBB © 2000, 2002, 2005, 2007 phpBB Group