\m/ 80's metal \m/

Информационно-аналитический форум "80 см пыли" (In Search We Trust) "У нас никто никуда не спешит"
Железнодорожная биржа - RailAgent
It is currently 23 Jun 2018

All times are UTC + 3 hours

Spoiler
Chat - temporary registration for foreign users (please leave your application here)







Post new topic Reply to topic  [ 14 posts ] 
Author Message
 
PostPosted: 27 Apr 2010 
ыыыы
User avatar
Joined: 17 May 2009
Posts: 952
Lоcаtion: Пушкино, МО
Age: 39
Name: Дмитрий
Image


Жанр: Heavy Metal
Происхождение исполнителя: США
Год издания: 1991
Год издания данного носителя: 1991
Страна-производитель носителя: Япония
Аудио кодек: FLAC
Тип рипа: image+.cue
Битрейт аудио: lossless
Продолжительность: 57:04
Рип: Собственный
Лейбл: METAL BLADE/WARNER-PIONEER
Каталоговый номер: WPCP-4318
Матрица: WPCP-4318 1A2 TO (TOSHIBA)

Треклист:
1. Reign Of Fire 03:57
2. Dropping Like Flies 04:40
3. Last Train Home 05:19
4. Tribal Dance 04:07
5. The Truth Always Hurts 04:20
6. Half Drawn Bridge 01:27
7. Another Day 05:32
8. Symbol Of Salvation 04:36
9. Hanging Judge 03:46
10. Warzone 03:39
11. Burning Question 04:19
12. Tainted Past 07:05
13. Spineless 04:17

"Куй"
REM GENRE "Heavy Metal"
REM DATE 1991
REM DISCID B50D600D
REM COMMENT "ExactAudioCopy v0.99pb5"
PERFORMER "Armored Saint"
TITLE "Symbol Of Salvation [WPCP-4318]"
FILE "Armored Saint - Symbol Of Salvation [WPCP-4318].flac" WAVE
TRACK 01 AUDIO
TITLE "Reign Of Fire"
PERFORMER "Armored Saint"
INDEX 01 00:00:00
TRACK 02 AUDIO
TITLE "Dropping Like Flies"
PERFORMER "Armored Saint"
INDEX 01 03:57:27
TRACK 03 AUDIO
TITLE "Last Train Home"
PERFORMER "Armored Saint"
INDEX 01 08:36:72
TRACK 04 AUDIO
TITLE "Tribal Dance"
PERFORMER "Armored Saint"
INDEX 00 13:55:15
INDEX 01 13:56:27
TRACK 05 AUDIO
TITLE "The Truth Always Hurts"
PERFORMER "Armored Saint"
INDEX 01 18:03:22
TRACK 06 AUDIO
TITLE "Half Drawn Bridge"
PERFORMER "Armored Saint"
INDEX 01 22:23:27
TRACK 07 AUDIO
TITLE "Another Day"
PERFORMER "Armored Saint"
INDEX 01 23:50:55
TRACK 08 AUDIO
TITLE "Symbol Of Salvation"
PERFORMER "Armored Saint"
INDEX 01 29:22:72
TRACK 09 AUDIO
TITLE "Hanging Judge"
PERFORMER "Armored Saint"
INDEX 01 33:59:17
TRACK 10 AUDIO
TITLE "Warzone"
PERFORMER "Armored Saint"
INDEX 01 37:44:72
TRACK 11 AUDIO
TITLE "Burning Question"
PERFORMER "Armored Saint"
INDEX 01 41:23:52
TRACK 12 AUDIO
TITLE "Tainted Past"
PERFORMER "Armored Saint"
INDEX 00 45:41:70
INDEX 01 45:42:22
TRACK 13 AUDIO
TITLE "Spineless"
PERFORMER "Armored Saint"
INDEX 01 52:46:67


"Лог"
Exact Audio Copy V0.99 prebeta 5 from 4. May 2009

EAC extraction logfile from 27. April 2010, 9:24

Armored Saint / Symbol Of Salvation [WPCP-4318]

Used drive : Optiarc DVD RW AD-7200A Adapter: 0 ID: 0

Read mode : Secure
Utilize accurate stream : Yes
Defeat audio cache : Yes
Make use of C2 pointers : No

Read offset correction : 48
Overread into Lead-In and Lead-Out : No
Fill up missing offset samples with silence : Yes
Delete leading and trailing silent blocks : No
Null samples used in CRC calculations : Yes
Used interface : Native Win32 interface for Win NT & 2000

Used output format : User Defined Encoder
Selected bitrate : 128 kBit/s
Quality : High
Add ID3 tag : No
Command line compressor : C:\Program Files\Exact Audio Copy\Flac\flac.exe
Additional command line options : -8 -V -T "artist=%a" -T "title=%t" -T "album=%g" -T "date=%y" -T "tracknumber=%n" -T "genre=%m" -T "comment=EAC 0.9beta4 / FLAC 1.1.0 q6" %s


TOC of the extracted CD

Track | Start | Length | Start sector | End sector
---------------------------------------------------------
1 | 0:00.00 | 3:57.27 | 0 | 17801
2 | 3:57.27 | 4:39.45 | 17802 | 38771
3 | 8:36.72 | 5:19.30 | 38772 | 62726
4 | 13:56.27 | 4:06.70 | 62727 | 81246
5 | 18:03.22 | 4:20.05 | 81247 | 100751
6 | 22:23.27 | 1:27.28 | 100752 | 107304
7 | 23:50.55 | 5:32.17 | 107305 | 132221
8 | 29:22.72 | 4:36.20 | 132222 | 152941
9 | 33:59.17 | 3:45.55 | 152942 | 169871
10 | 37:44.72 | 3:38.55 | 169872 | 186276
11 | 41:23.52 | 4:18.45 | 186277 | 205671
12 | 45:42.22 | 7:04.45 | 205672 | 237516
13 | 52:46.67 | 4:17.08 | 237517 | 256799


Range status and errors

Selected range

Filename Y:\Музыка\Armored Saint\1991 Symbol Of Salvation\Armored Saint - Symbol Of Salvation [WPCP-4318].wav

Peak level 94.0 %
Range quality 100.0 %
Copy CRC CECA1565
Copy OK

No errors occurred

End of status report


Состав:
John Bush: Vocals
Jeff Duncan: Guitar
Phil Sandoval: Guitar
Joey Vera: Bass
Gonzo Sandoval: Drums

Народ

_________________
Витасу до Даймонда как Алсу до Руссоса | При переразмещении - спрашивать разрешение!!


Top
 Profile  
 
 
PostPosted: 27 Apr 2010 
ыыыы
User avatar
Joined: 17 May 2009
Posts: 952
Lоcаtion: Пушкино, МО
Age: 39
Name: Дмитрий
Какие-то неприличные ассоциации навевает эта картинка :nunu:

_________________
Витасу до Даймонда как Алсу до Руссоса | При переразмещении - спрашивать разрешение!!


Top
 Profile  
 
 
PostPosted: 27 Apr 2010 
Хиппей (support team)
User avatar
Joined: 30 Jul 2007
Posts: 104564
Lоcаtion: Киев (Kyiv, UA)
Age: 45
Name: Andrey
Спасибо за альбом!

А шо там на картинке, я так и не разобрал :vic:

_________________


Top
 Profile E-mail  
 
 
PostPosted: 27 Apr 2010 
ыыыы
User avatar
Joined: 17 May 2009
Posts: 952
Lоcаtion: Пушкино, МО
Age: 39
Name: Дмитрий
шо там- не знаю, но всё равно навевает.. :oops:

_________________
Витасу до Даймонда как Алсу до Руссоса | При переразмещении - спрашивать разрешение!!


Top
 Profile  
 
 
PostPosted: 27 Apr 2010 
Хиппей (support team)
User avatar
Joined: 30 Jul 2007
Posts: 104564
Lоcаtion: Киев (Kyiv, UA)
Age: 45
Name: Andrey
iezuit wrote:
но всё равно навевает..

Рубенс? :vic:

_________________


Top
 Profile E-mail  
 
 
PostPosted: 27 Apr 2010 
Дежурный по КУПу
User avatar
Joined: 17 Aug 2007
Posts: 5869
Age: 50
Name: Ге
Спасибо!

iezuit wrote:
Какие-то неприличные ассоциации навевает эта картинка


Death Magnetic?

_________________
http://jp-mania.ru/
http://jp-tourdates.ucoz.ru/


Top
 Profile  
 
 
PostPosted: 27 Apr 2010 
ыыыы
User avatar
Joined: 17 May 2009
Posts: 952
Lоcаtion: Пушкино, МО
Age: 39
Name: Дмитрий
Quote:
Death Magnetic?

а что в нём неприличного? )) Блин, женский орган на картинке! :crazy: :siski:

_________________
Витасу до Даймонда как Алсу до Руссоса | При переразмещении - спрашивать разрешение!!


Top
 Profile  
 
 
PostPosted: 27 Apr 2010 
А может смените мне статус?..
Joined: 03 Jul 2009
Posts: 766
Lоcаtion: Serbia
Name: Laki
Thanks I just love this one !!!!!!


Top
 Profile E-mail  
 
 
PostPosted: 27 Apr 2010 
Хиппей (support team)
User avatar
Joined: 30 Jul 2007
Posts: 104564
Lоcаtion: Киев (Kyiv, UA)
Age: 45
Name: Andrey
iezuit wrote:
Блин, женский орган на картинке!

Чёта я непонил, а шо на нём снизу налипло? :oops:

_________________


Top
 Profile E-mail  
 
 
PostPosted: 27 Apr 2010 
Дежурный по КУПу
User avatar
Joined: 17 Aug 2007
Posts: 5869
Age: 50
Name: Ге
iezuit wrote:
Блин, женский орган на картинке!

Да, а на Death Magnetic что?

Image

_________________
http://jp-mania.ru/
http://jp-tourdates.ucoz.ru/


Top
 Profile  
 
 
PostPosted: 27 Apr 2010 
Хиппей (support team)
User avatar
Joined: 30 Jul 2007
Posts: 104564
Lоcаtion: Киев (Kyiv, UA)
Age: 45
Name: Andrey
Губы это :umnik:

_________________


Top
 Profile E-mail  
 
 
PostPosted: 27 Apr 2010 
ыыыы
User avatar
Joined: 17 May 2009
Posts: 952
Lоcаtion: Пушкино, МО
Age: 39
Name: Дмитрий
Scatterbrain
вот только какие?? :umnik:

_________________
Витасу до Даймонда как Алсу до Руссоса | При переразмещении - спрашивать разрешение!!


Top
 Profile  
 
 
PostPosted: 27 Apr 2010 
Хиппей (support team)
User avatar
Joined: 30 Jul 2007
Posts: 104564
Lоcаtion: Киев (Kyiv, UA)
Age: 45
Name: Andrey
Трухильо? :vic:

Image

_________________


Top
 Profile E-mail  
 
 
PostPosted: 02 May 2010 
Пионэръ
Joined: 08 Mar 2010
Posts: 36
Lоcаtion: Россия
Age: 38
Name: Иван
Маньяки и извращенцы :umnik:


Top
 Profile E-mail  
 
Display posts from previous:  Sort by  
Post new topic Reply to topic  [ 14 posts ] 

All times are UTC + 3 hours


Who is online

Users browsing this forum: No registered users and 3 guests


You cannot post new topics in this forum
You cannot reply to topics in this forum
You cannot edit your posts in this forum
You cannot delete your posts in this forum
You cannot post attachments in this forum

Search for:
Яндекс.Метрика
Powered by phpBB © 2000, 2002, 2005, 2007 phpBB Group