\m/ 80's metal \m/

Информационно-аналитический форум "80 см пыли" (In Search We Trust) "У нас никто никуда не спешит"
Железнодорожная биржа - RailAgent
It is currently 18 Aug 2018

All times are UTC + 3 hours

Spoiler
Chat - temporary registration for foreign users (please leave your application here)







Post new topic Reply to topic  [ 10 posts ] 
Author Message
 
PostPosted: 25 Apr 2010 
А может смените мне статус?..
User avatar
Joined: 17 Jan 2008
Posts: 848
Lоcаtion: Пенза
Age: 40
Name: Денис
Вот вам лосяра мне его подогнали очень давно,то есть он не с ММТ....Думую,что на MMT сейчас другой рип зарелизили...

LOG
Exact Audio Copy V0.99 prebeta 4 from 23. January 2008

EAC extraction logfile from 12. July 2009, 12:22

Angelus / Kneel Down And Pray

Used drive : PIONEER DVD-RW DVR-215 Adapter: 2 ID: 3

Read mode : Secure
Utilize accurate stream : Yes
Defeat audio cache : Yes
Make use of C2 pointers : No

Read offset correction : 48
Overread into Lead-In and Lead-Out : No
Fill up missing offset samples with silence : Yes
Delete leading and trailing silent blocks : No
Null samples used in CRC calculations : Yes
Used interface : Installed external ASPI interface

Used output format : Internal WAV Routines
Sample format : 44.100 Hz; 16 Bit; Stereo


TOC of the extracted CD

Track | Start | Length | Start sector | End sector
---------------------------------------------------------
1 | 0:00.00 | 3:05.52 | 0 | 13926
2 | 3:05.52 | 3:28.45 | 13927 | 29571
3 | 6:34.22 | 4:21.48 | 29572 | 49194
4 | 10:55.70 | 2:08.72 | 49195 | 58866
5 | 13:04.67 | 4:15.58 | 58867 | 78049
6 | 17:20.50 | 2:41.15 | 78050 | 90139
7 | 20:01.65 | 2:28.67 | 90140 | 101306
8 | 22:30.57 | 3:08.35 | 101307 | 115441
9 | 25:39.17 | 3:10.73 | 115442 | 129764
10 | 28:50.15 | 3:15.42 | 129765 | 144431
11 | 32:05.57 | 3:07.43 | 144432 | 158499
12 | 35:13.25 | 3:33.70 | 158500 | 174544
13 | 38:47.20 | 2:28.35 | 174545 | 185679
14 | 41:15.55 | 3:25.62 | 185680 | 201116


Range status and errors

Selected range

Filename F:\EAC WORK\Angelus - Kneel Down And Pray.wav

Peak level 100.0 %
Range quality 100.0 %
Test CRC E7427EF6
Copy CRC E7427EF6
Copy OK

No errors occurred


AccurateRip summary

Track 1 not present in database
Track 2 not present in database
Track 3 not present in database
Track 4 not present in database
Track 5 not present in database
Track 6 not present in database
Track 7 not present in database
Track 8 not present in database
Track 9 not present in database
Track 10 not present in database
Track 11 not present in database
Track 12 not present in database
Track 13 not present in database
Track 14 not present in database

None of the tracks are present in the AccurateRip database

End of status report


http://narod.ru/disk/20087386000/Angelu ... y.rar.html


Top
 Profile  
 
 
PostPosted: 25 Apr 2010 
Хиппей (support team)
User avatar
Joined: 30 Jul 2007
Posts: 105653
Lоcаtion: Киев (Kyiv, UA)
Age: 45
Name: Andrey
Angelus - 1991 - Kneel Down and Pray [wv]

Image

Genre: Thrash/Crossover
Location: Germany
Format: wv+log+cue
Size: 299 Mb


Line-up:
Role - vocals
Norbert Schüttler - guitar
Eggi Gruber - guitar
Micha Hoffmann - bass
Chris Harris - drums

    1. The Big Surprise - 03:06
    2. Empty - 03:29
    3. Mankind's Solution - 04:22
    4. Nostrum - 02:09
    5. Bombs - 04:16
    6. The World Is Dead - 02:41
    7. Big Biz - 02:29
    8. Who Wants It ? - 03:08
    9. Throw It Back - 03:11
    10. Conquer Space - 03:15
    11. Don't Tell Me - 03:08
    12. F.U.F. - 03:34
    13. Happy Head - 02:28
    14. Powertrip To .... - 03:25

    TPT: 44:43

MultiUp l Narod

Released by gnoppi from MMT

Весёленький немецкий кроссовер :meloman: Чтоб было понятно - в меру рваный ритм, музыка варьируется от обычного хэви через панк до трэша, на выходе получаем класический кроссовер. Слушается всё это без каких-либо сложностей, всё сыграно на одной волне. Но никакой однообразности.
Впрочем, как и оригинальности :pardon:

4/5

log
Exact Audio Copy V0.99 prebeta 4 from 23. January 2008

EAC extraction logfile from 12. July 2009, 12:22

Angelus / Kneel Down And Pray

Used drive : PIONEER DVD-RW DVR-215 Adapter: 2 ID: 3

Read mode : Secure
Utilize accurate stream : Yes
Defeat audio cache : Yes
Make use of C2 pointers : No

Read offset correction : 48
Overread into Lead-In and Lead-Out : No
Fill up missing offset samples with silence : Yes
Delete leading and trailing silent blocks : No
Null samples used in CRC calculations : Yes
Used interface : Installed external ASPI interface

Used output format : Internal WAV Routines
Sample format : 44.100 Hz; 16 Bit; Stereo


TOC of the extracted CD

Track | Start | Length | Start sector | End sector
---------------------------------------------------------
1 | 0:00.00 | 3:05.52 | 0 | 13926
2 | 3:05.52 | 3:28.45 | 13927 | 29571
3 | 6:34.22 | 4:21.48 | 29572 | 49194
4 | 10:55.70 | 2:08.72 | 49195 | 58866
5 | 13:04.67 | 4:15.58 | 58867 | 78049
6 | 17:20.50 | 2:41.15 | 78050 | 90139
7 | 20:01.65 | 2:28.67 | 90140 | 101306
8 | 22:30.57 | 3:08.35 | 101307 | 115441
9 | 25:39.17 | 3:10.73 | 115442 | 129764
10 | 28:50.15 | 3:15.42 | 129765 | 144431
11 | 32:05.57 | 3:07.43 | 144432 | 158499
12 | 35:13.25 | 3:33.70 | 158500 | 174544
13 | 38:47.20 | 2:28.35 | 174545 | 185679
14 | 41:15.55 | 3:25.62 | 185680 | 201116


Range status and errors

Selected range

Filename F:\EAC WORK\Angelus - Kneel Down And Pray.wav

Peak level 100.0 %
Range quality 100.0 %
Test CRC E7427EF6
Copy CRC E7427EF6
Copy OK

No errors occurred


AccurateRip summary

Track 1 not present in database
Track 2 not present in database
Track 3 not present in database
Track 4 not present in database
Track 5 not present in database
Track 6 not present in database
Track 7 not present in database
Track 8 not present in database
Track 9 not present in database
Track 10 not present in database
Track 11 not present in database
Track 12 not present in database
Track 13 not present in database
Track 14 not present in database

None of the tracks are present in the AccurateRip database

End of status report


cue
REM GENRE Heavy Metal
REM DATE 1991
PERFORMER "Angelus"
TITLE "Kneel Down And Pray"
REM REPLAYGAIN_ALBUM_GAIN -3.19 dB
REM REPLAYGAIN_ALBUM_PEAK 1.000000
FILE "Angelus - Kneel Down And Pray.wav" WAVE
TRACK 01 AUDIO
TITLE "The Big Surprise"
REM REPLAYGAIN_TRACK_GAIN -4.49 dB
REM REPLAYGAIN_TRACK_PEAK 0.949829
INDEX 01 00:00:00
TRACK 02 AUDIO
TITLE "Empty"
REM REPLAYGAIN_TRACK_GAIN -2.80 dB
REM REPLAYGAIN_TRACK_PEAK 0.955017
INDEX 00 03:05:04
INDEX 01 03:05:52
TRACK 03 AUDIO
TITLE "Mankind's Solution"
REM REPLAYGAIN_TRACK_GAIN -3.68 dB
REM REPLAYGAIN_TRACK_PEAK 0.999969
INDEX 00 06:33:24
INDEX 01 06:34:22
TRACK 04 AUDIO
TITLE "Nostrum"
REM REPLAYGAIN_TRACK_GAIN -3.77 dB
REM REPLAYGAIN_TRACK_PEAK 0.911957
INDEX 00 10:54:51
INDEX 01 10:55:70
TRACK 05 AUDIO
TITLE "Bombs"
REM REPLAYGAIN_TRACK_GAIN -3.14 dB
REM REPLAYGAIN_TRACK_PEAK 0.971069
INDEX 00 13:04:36
INDEX 01 13:04:67
TRACK 06 AUDIO
TITLE "T.w.is.d. [The World Is Dead]"
REM REPLAYGAIN_TRACK_GAIN -2.90 dB
REM REPLAYGAIN_TRACK_PEAK 0.991150
INDEX 00 17:19:46
INDEX 01 17:20:50
TRACK 07 AUDIO
TITLE "Big Biz"
REM REPLAYGAIN_TRACK_GAIN -2.92 dB
REM REPLAYGAIN_TRACK_PEAK 0.914124
INDEX 00 20:00:45
INDEX 01 20:01:65
TRACK 08 AUDIO
TITLE "Who Wants It?"
REM REPLAYGAIN_TRACK_GAIN -2.15 dB
REM REPLAYGAIN_TRACK_PEAK 1.000000
INDEX 00 22:30:19
INDEX 01 22:30:57
TRACK 09 AUDIO
TITLE "Throw It Back"
REM REPLAYGAIN_TRACK_GAIN -3.36 dB
REM REPLAYGAIN_TRACK_PEAK 0.967377
INDEX 00 25:38:24
INDEX 01 25:39:17
TRACK 10 AUDIO
TITLE "Conquer Space"
REM REPLAYGAIN_TRACK_GAIN -2.77 dB
REM REPLAYGAIN_TRACK_PEAK 0.999969
INDEX 00 28:48:71
INDEX 01 28:50:15
TRACK 11 AUDIO
TITLE "Don't Tell Me"
REM REPLAYGAIN_TRACK_GAIN -2.63 dB
REM REPLAYGAIN_TRACK_PEAK 0.985657
INDEX 00 32:04:35
INDEX 01 32:05:57
TRACK 12 AUDIO
TITLE "F.U.F."
REM REPLAYGAIN_TRACK_GAIN -2.75 dB
REM REPLAYGAIN_TRACK_PEAK 0.969604
INDEX 00 35:12:23
INDEX 01 35:13:25
TRACK 13 AUDIO
TITLE "Happy Head"
REM REPLAYGAIN_TRACK_GAIN -2.57 dB
REM REPLAYGAIN_TRACK_PEAK 0.923950
INDEX 00 38:46:00
INDEX 01 38:47:20
TRACK 14 AUDIO
TITLE "Powertrip To ... [Nowhere]"
REM REPLAYGAIN_TRACK_GAIN -2.88 dB
REM REPLAYGAIN_TRACK_PEAK 0.965179
INDEX 00 41:14:70
INDEX 01 41:15:55

_________________


Top
 Profile E-mail  
 
 
PostPosted: 25 Apr 2010 
Хиппей (support team)
User avatar
Joined: 30 Jul 2007
Posts: 105653
Lоcаtion: Киев (Kyiv, UA)
Age: 45
Name: Andrey
klod77 wrote:
Думую,что на MMT сейчас другой рип зарелизили...

Не-о, тот самый :pardon:

_________________


Top
 Profile E-mail  
 
 
PostPosted: 25 Apr 2010 
А может смените мне статус?..
User avatar
Joined: 17 Jan 2008
Posts: 848
Lоcаtion: Пенза
Age: 40
Name: Денис
Scatterbrain wrote:
klod77 wrote:
Думую,что на MMT сейчас другой рип зарелизили...

Не-о, тот самый :pardon:

Да как же тот же самый,если у меня Flac,а на ММТ-[wv]..


Top
 Profile  
 
 
PostPosted: 25 Apr 2010 
Хиппей (support team)
User avatar
Joined: 30 Jul 2007
Posts: 105653
Lоcаtion: Киев (Kyiv, UA)
Age: 45
Name: Andrey
Лог одинаковый :pardon:

_________________


Top
 Profile E-mail  
 
 
PostPosted: 25 Apr 2010 
Прокъмитолист
User avatar
Joined: 12 Aug 2007
Posts: 6447
Lоcаtion: Санктъ-Петербуркъ
Age: 50
Name: Олекъ
gnoppi ваще в вав грабит, как видно из логов. в wv - это потом Rabiator уже конвертит :oops: да и ваще, конвертнуть можно во что угодно, если кому-то хочется :pardon:

_________________
прокъметол - это музыко, от которово есть прок (ы)


Top
 Profile  
 
 
PostPosted: 25 Apr 2010 
Хиппей (support team)
User avatar
Joined: 30 Jul 2007
Posts: 105653
Lоcаtion: Киев (Kyiv, UA)
Age: 45
Name: Andrey
spiralarch wrote:
это потом Rabiator уже конвертит

Угу, тож заметил. Но лог остался гнопповский :pardon:

_________________


Top
 Profile E-mail  
 
 
PostPosted: 26 Apr 2010 
А может смените мне статус?..
User avatar
Joined: 17 Jan 2008
Posts: 848
Lоcаtion: Пенза
Age: 40
Name: Денис
Scatterbrain wrote:
spiralarch wrote:
это потом Rabiator уже конвертит

Угу, тож заметил. Но лог остался гнопповский :pardon:

100 % у меня оригинальный лось..и 100% не гнопповский...Откуда они его выковырили и смонстрячили свой для ММТ,это уже другой вопрос :pardon:


Top
 Profile  
 
 
PostPosted: 26 Apr 2010 
Прокъмитолист
User avatar
Joined: 12 Aug 2007
Posts: 6447
Lоcаtion: Санктъ-Петербуркъ
Age: 50
Name: Олекъ
Денис, ты ведь собираешь трэшевых лосей не первый день, я правильно понимаю? и ты хочешь сказать, что до сих пор не узнаешь гнопповские логи? ;)

_________________
прокъметол - это музыко, от которово есть прок (ы)


Top
 Profile  
 
 
PostPosted: 26 Apr 2010 
А может смените мне статус?..
User avatar
Joined: 17 Jan 2008
Posts: 848
Lоcаtion: Пенза
Age: 40
Name: Денис
spiralarch wrote:
Денис, ты ведь собираешь трэшевых лосей не первый день, я правильно понимаю? и ты хочешь сказать, что до сих пор не узнаешь гнопповские логи? ;)

честно..не узнаю....)))...но с тобой спорить не буду,хноппи так хноппи...


Top
 Profile  
 
Display posts from previous:  Sort by  
Post new topic Reply to topic  [ 10 posts ] 

All times are UTC + 3 hours


Who is online

Users browsing this forum: No registered users and 1 guest


You cannot post new topics in this forum
You cannot reply to topics in this forum
You cannot edit your posts in this forum
You cannot delete your posts in this forum
You cannot post attachments in this forum

Search for:
Яндекс.Метрика
Powered by phpBB © 2000, 2002, 2005, 2007 phpBB Group