\m/ 80's metal \m/

Информационно-аналитический форум "80 см пыли" (In Search We Trust) "У нас никто никуда не спешит"
Me For You - http://me-4u.com
It is currently 22 Oct 2018

All times are UTC + 3 hours

Spoiler
Chat - temporary registration for foreign users (please leave your application here)







Post new topic Reply to topic  [ 6 posts ] 
Author Message
 
PostPosted: 09 Apr 2010 
ыыыы
User avatar
Joined: 17 May 2009
Posts: 952
Lоcаtion: Пушкино, МО
Age: 40
Name: Дмитрий
Image


Жанр: Traditional Heavy/Speed Metal
Происхождение исполнителя: Германия
Год издания: 1979
Год издания данного носителя: 1986
Страна-производитель носителя: Япония
Тип рипа: wav
Битрейт аудио: lossless
Продолжительность: 36:18
Рип: Собственный
Лейбл: METRONOME/POLYSTAR
Каталоговый номер: P33X-20001
Матрица: P33X-20001-U1E 12 V (JVC)

Треклист:
1. Lady Lou 03:03
2. Tired of Me 03:16
3. Seawinds 04:31
4. Take Him in My Heart 03:31
5. Sounds of War 04:38
6. Free Me Now 03:01
7. Glad to Be Alone 05:14
8. That's Rock N' Roll 02:54
9. Helldriver 02:41
10. Street Fighter 03:29

"Куй"
REM GENRE Rock
REM DATE 1979
REM COMMENT 1979 Metronome GmbH 2000 Breker Records / Nuclear Blast YEAR: 1979
PERFORMER "Accept"
TITLE "Accept [P33X-20001]"
FILE "Accept - Accept [P33X-20001].wav" WAVE
TRACK 01 AUDIO
TITLE "Lady Lou"
INDEX 01 00:00:00
TRACK 02 AUDIO
TITLE "Tired Of Me"
INDEX 01 03:03:05
TRACK 03 AUDIO
TITLE "Seawinds"
INDEX 01 06:18:65
TRACK 04 AUDIO
TITLE "Take Him In My Heart"
INDEX 01 10:50:25
TRACK 05 AUDIO
TITLE "Sounds Of War"
INDEX 01 14:21:55
TRACK 06 AUDIO
TITLE "Free Me Now"
INDEX 01 18:59:23
TRACK 07 AUDIO
TITLE "Glad To Be Alone"
INDEX 01 22:00:50
TRACK 08 AUDIO
TITLE "That's Rock 'n Roll"
INDEX 01 27:14:18
TRACK 09 AUDIO
TITLE "Hell Driver"
INDEX 01 30:07:73
TRACK 10 AUDIO
TITLE "Street Fighter"
INDEX 01 32:49:05


Состав:
Udo Dirkschneider: Vocals
Wolf Hoffman: Guitar
Jorg Fischer: Guitar
Peter Baltes: Bass / lead vocals in "Seawinds"
Frank Friedrich: Drums

Народ

#######
Рип сделан в foobar2000

_________________
Витасу до Даймонда как Алсу до Руссоса | При переразмещении - спрашивать разрешение!!


Last edited by iezuit on 10 Apr 2010, edited 1 time in total.

Top
 Profile  
 
 
PostPosted: 09 Apr 2010 
HAMMER
User avatar
Joined: 16 May 2009
Posts: 5397
Lоcаtion: Тверь
Age: 45
Name: Александр
:thanx:


Top
 Profile E-mail  
 
 
PostPosted: 09 Apr 2010 
ыыыы
User avatar
Joined: 17 May 2009
Posts: 952
Lоcаtion: Пушкино, МО
Age: 40
Name: Дмитрий
На сколько я понимаю, в записи барабанных партий фактически принимал участие Стефан Кауфманн, Фридрих проявил себя посредственным исполнителем, за что и был уволен.
Что касается данного релиза- копироваться он отказался, пришлось снова рипать фубаром. Сам по себе диск- достаточно большая редкость, как и Breaker P33X-20002. Выполнен с оби-стикером на заводе JVC с нанесением матрицы старым шрифтом.

_________________
Витасу до Даймонда как Алсу до Руссоса | При переразмещении - спрашивать разрешение!!


Top
 Profile  
 
 
PostPosted: 09 Apr 2010 
хард н хэвщик (support team)
User avatar
Joined: 02 Jun 2008
Posts: 16880
Lоcаtion: Н.Новгород
Age: 31
Name: Артем
Возможно именно из-за той причины, что я первым у аксепта услышал именно этот альбом, я вернулся к остальным , ломовым, альбомам спустя года :oops:


Top
 Profile  
 
 
PostPosted: 09 Apr 2010 
Motörheadache
User avatar
Joined: 04 Feb 2010
Posts: 1294
Lоcаtion: Впереди- горы,позади-степи
Age: 45
Name: Александр
Нда-а..."поллучив поддых " Restless And Wild-ом с Metal Heart-ом в середине 80-х,мой организм до-о-олго не воспринимал "нежных поглаживаний " сего продукта.. :crazy:
Прошло энное колличества лет ,чтобы позитивно относиться к дебюту уважаемых германцев.
Наверное возрастное.... :smile:

_________________
Eine Nation, Ein Land, Eine Schnaps!

Наш священный долг:защищать Родину,и соблюдать правила личной гигиены....!


Top
 Profile E-mail  
 
 
PostPosted: 09 Apr 2010 
ыыыы
User avatar
Joined: 17 May 2009
Posts: 952
Lоcаtion: Пушкино, МО
Age: 40
Name: Дмитрий
да уж..своеобразное творение :nunu:

_________________
Витасу до Даймонда как Алсу до Руссоса | При переразмещении - спрашивать разрешение!!


Top
 Profile  
 
Display posts from previous:  Sort by  
Post new topic Reply to topic  [ 6 posts ] 

All times are UTC + 3 hours


Who is online

Users browsing this forum: No registered users and 2 guests


You cannot post new topics in this forum
You cannot reply to topics in this forum
You cannot edit your posts in this forum
You cannot delete your posts in this forum
You cannot post attachments in this forum

Search for:
Яндекс.Метрика
Powered by phpBB © 2000, 2002, 2005, 2007 phpBB Group