\m/ 80's metal \m/

Информационно-аналитический форум "80 см пыли" (In Search We Trust) "У нас никто никуда не спешит"
Me For You - http://me-4u.com
It is currently 19 Oct 2018

All times are UTC + 3 hours

Spoiler
Chat - temporary registration for foreign users (please leave your application here)







Post new topic Reply to topic  [ 3 posts ] 
Author Message
 
PostPosted: 20 Mar 2010 
ыыыы
User avatar
Joined: 17 May 2009
Posts: 952
Lоcаtion: Пушкино, МО
Age: 40
Name: Дмитрий
Image


Жанр: Thrash Metal
Происхождение исполнителя: США
Год издания: 1988
Год издания данного носителя: 1990 (2-е)
Страна-производитель носителя: Япония
Аудио кодек: FLAC
Тип рипа: image+.cue
Битрейт аудио: lossless
Продолжительность: 46:58
Рип: Собственный
Лейбл: ISLAND/POLYSTAR
Каталоговый номер: PSCD-1047
Матрица: PSCD-1047-A1D 11 V (JVC)

Треклист:
1. Be All, End All 06:24
2. Out of Sight, Out of Mind 05:13
3. Make Me Laugh 05:42
4. Antisocial (Trust cover) 04:26
5. Who Cares Wins 07:36
6. Now It's Dark 05:36
7. Schism 05:29
8. Misery Loves Company 05:41
9. 13 00:51
10. Finale 05:49

"Куй"
REM GENRE "Heavy Metal"
REM DATE 1988
REM DISCID 940C600A
REM COMMENT "ExactAudioCopy v0.95b4"
CATALOG 0000000000000
PERFORMER "ANTHRAX"
TITLE "State Of Euphoria [PSCD-1047]"
FILE "ANTHRAX - State Of Euphoria [PSCD-1047].flac" WAVE
TRACK 01 AUDIO
TITLE "Be All, End All"
PERFORMER "ANTHRAX"
INDEX 00 00:00:00
INDEX 01 00:00:37
TRACK 02 AUDIO
TITLE "Out Of Sight, Out Of Mind"
PERFORMER "ANTHRAX"
INDEX 00 06:22:37
INDEX 01 06:24:12
TRACK 03 AUDIO
TITLE "Make Me Laugh"
PERFORMER "ANTHRAX"
INDEX 00 11:37:39
INDEX 01 11:37:40
TRACK 04 AUDIO
TITLE "Antisocial"
PERFORMER "ANTHRAX"
INDEX 01 17:19:17
TRACK 05 AUDIO
TITLE "Who Cares Wins"
PERFORMER "ANTHRAX"
INDEX 00 21:43:67
INDEX 01 21:45:12
TRACK 06 AUDIO
TITLE "Now It's Dark"
PERFORMER "ANTHRAX"
INDEX 01 29:21:00
TRACK 07 AUDIO
TITLE "Schism"
PERFORMER "ANTHRAX"
INDEX 01 34:57:00
TRACK 08 AUDIO
TITLE "Misery Loves Company"
PERFORMER "ANTHRAX"
INDEX 01 40:25:67
TRACK 09 AUDIO
TITLE "13"
PERFORMER "ANTHRAX"
INDEX 01 46:07:07
TRACK 10 AUDIO
TITLE "Finale"
PERFORMER "ANTHRAX"
INDEX 01 46:58:42


"Лог"
EAC extraction logfile from 14. November 2009, 13:45 for CD
ANTHRAX / State Of Euphoria [PSCD-1047]

Used drive : ASUS DRW-2014S1 Adapter: 0 ID: 0
Read mode : Secure with NO C2, accurate stream, disable cache
Read offset correction : 6
Overread into Lead-In and Lead-Out : No

Used output format : Internal WAV Routines
44.100 Hz; 16 Bit; Stereo

Other options :
Fill up missing offset samples with silence : Yes
Delete leading and trailing silent blocks : No
Installed external ASPI interface


Range status and errors
Selected range
Filename Y:\Музыка\Anthrax\1988 State Of Euphoria\ANTHRAX - State Of Euphoria [PSCD-1047].wav

Peak level 97.7 %
Range quality 100.0 %
CRC 683B901A
Copy OK

No errors occured

End of status report


Состав:
Joey Belladonna: vocals
Scott Ian: guitars
Dan Spitz: guitars
Frank Bello: bass
Charlie Benante: drums

Megaupload
Фото

В куе поменяйте вав на флак.

_________________
Витасу до Даймонда как Алсу до Руссоса | При переразмещении - спрашивать разрешение!!


Top
 Profile  
 
 
PostPosted: 20 Mar 2010 
Хиппей (support team)
User avatar
Joined: 30 Jul 2007
Posts: 107021
Lоcаtion: Киев (Kyiv, UA)
Age: 45
Name: Andrey
Спасибо! :true:

_________________


Top
 Profile E-mail  
 
 
PostPosted: 20 Mar 2010 
Анатолий
User avatar
Joined: 18 Oct 2008
Posts: 3133
Lоcаtion: Армавир
Age: 41
Name: Анатолий
Ну что тут скажешь... СПАСИБО!!! :thanx: :thanx: :thanx:

''Be All, End All" - мега вещь! Эх... были времена... Верните мне Anthrax! :dash:


Top
 Profile E-mail  
 
Display posts from previous:  Sort by  
Post new topic Reply to topic  [ 3 posts ] 

All times are UTC + 3 hours


Who is online

Users browsing this forum: No registered users and 3 guests


You cannot post new topics in this forum
You cannot reply to topics in this forum
You cannot edit your posts in this forum
You cannot delete your posts in this forum
You cannot post attachments in this forum

Search for:
Яндекс.Метрика
Powered by phpBB © 2000, 2002, 2005, 2007 phpBB Group