\m/ 80's metal \m/

Информационно-аналитический форум "80 см пыли" (In Search We Trust) "У нас никто никуда не спешит"
Me For You - http://me-4u.com
It is currently 17 Oct 2019

All times are UTC + 3 hours

Spoiler
Chat - temporary registration for foreign users (please leave your application here)







Post new topic Reply to topic  [ 18 posts ] 
Author Message
 
PostPosted: 23 Feb 2010 
труъ антисионист
User avatar
Joined: 01 Aug 2007
Posts: 4544
Lоcаtion: Откуда и большинство из нас
Age: 38
Name: Дядя Вова
A.R.G. - One World Without The End (1991)

Image

Year: 1991
Style: Thrash Metal
Country: FIN
Label: Black Mark Records
Cat#: BMCD 15
Format: Lossless (Wv+Cue+Log)
Size: 340 Mb
***************************************************************************
Line up:
Tepa - vocals, guitar
Vesa - guitar
Jari - bass
Pasi - drums

Tracklist:
01. Last Dawn Of Humanity (Intro) (1:58)
02. Died For What (3:49)
03. In The Depths Of Sanity (3:40)
04. Adoration Of The Kings (5:15)
05. Happy Times (0:50)
06. Misfortune Along My Side (RIP II) (5:26)
07. Hey Hey My My (3:05)
08. Back To Life (3:46)
09. One World Without The End / Descent Fron The Heaven (12:15)
10. Straybullet (4:38)
**************************
Total playing time 41:31

LOG
Exact Audio Copy V0.99 prebeta 5 from 4. May 2009

Отчёт EAC об извлечении, выполненном 16. октября 2009, 15:10

A.R.G. / One World Without The End

Дисковод: Optiarc DVD RW AD-5200A Adapter: 2 ID: 3

Режим чтения : Достоверность
Использование точного потока : Да
Отключение кэша аудио : Да
Использование указателей C2 : Нет

Коррекция смещения при чтении : 48
Способность читать области Lead-in и Lead-out : Нет
Заполнение пропущенных сэмплов тишиной : Да
Удаление блоков с тишиной в начале и конце : Нет
При вычислениях CRC использовались нулевые сэмплы : Да
Интерфейс : Встроенный Win32-интерфейс для Win NT/2000

Выходной формат : Внутренние WAV-операции
Формат сэмплов : 44.100 Гц; 16 бит; стерео


TOC извлечённого CD

Трек | Старт | Длительность | Начальный сектор | Конечный сектор
---------------------------------------------------------------------
1 | 0:00.00 | 1:58.25 | 0 | 8874
2 | 1:58.25 | 3:48.60 | 8875 | 26034
3 | 5:47.10 | 3:40.17 | 26035 | 42551
4 | 9:27.27 | 5:14.60 | 42552 | 66161
5 | 14:42.12 | 0:49.53 | 66162 | 69889
6 | 15:31.65 | 5:25.70 | 69890 | 94334
7 | 20:57.60 | 3:04.47 | 94335 | 108181
8 | 24:02.32 | 3:45.68 | 108182 | 125124
9 | 27:48.25 | 12:14.47 | 125125 | 180221
10 | 40:02.72 | 4:37.68 | 180222 | 201064


Характеристики диапазона извлечения и сообщения об ошибках

Выбранный диапазон

Имя файла E:\Torrent\CD Torrent\1tor\A.R.G. 1991' - One World Without The End\A.R.G. - One World Without The End.wav

Пиковый уровень 99.2 %
Качество диапазона 99.9 %
CRC копии 7B89B642
Копирование... OK

Ошибок не произошло

Конец отчёта

Сырой, но весьма забористый треш метал, для любителей Darkness, Morbid Saint




**********************************************************************

Забираем : Narod
A.R.G. 1991' - One World Without The End.rar

_________________
Image
Image


Top
 Profile  
 
 
PostPosted: 23 Feb 2010 
Доктор энтомологии
User avatar
Joined: 22 Jan 2009
Posts: 9925
Lоcаtion: Даугавпилс
Age: 44
Name: Алексей
:true: Клевая вещь :meloman:


Top
 Profile  
 
 
PostPosted: 24 Feb 2010 
Генеральный thrasher
User avatar
Joined: 03 Oct 2008
Posts: 3738
Lоcаtion: Ханты-Мансийский АО
Age: 44
Name: Сергей
Вещь клёвая.Но с народом у меня проблемы.Быстрее с торрента стяну :(


Top
 Profile  
 
 
PostPosted: 24 Feb 2010 
Работнечег
User avatar
Joined: 28 Aug 2007
Posts: 6031
Lоcаtion: г. Москва
Age: 30
Name: Дима
Спасибо! Качать не буду, но группа действительно классная :true:


Top
 Profile E-mail  
 
 
PostPosted: 18 Mar 2010 
Thrasher
User avatar
Joined: 07 Oct 2007
Posts: 2782
Lоcаtion: Russia, Moscow
Age: 35
Name: Drunk & Evil
Спасибо, заберу :true:

_________________
ВОДКА, БАБЫ И БЛЮЗ / 40° till death... :bodun:
One time we saw some hookers, but when we got closer, we realised it was Mötley Crüe. ©


Top
 Profile  
 
 
PostPosted: 21 Feb 2011 
Хиппей (support team)
User avatar
Joined: 30 Jul 2007
Posts: 114881
Lоcаtion: Киев (Kyiv, UA)
Age: 46
Name: Andrey
Glot wrote:
Сырой, но весьма забористый треш метал, для любителей Darkness, Morbid Saint

Не знаю, как чего, но мне всегда этот альбом напоминал финский вариант Kreator'a середины 90-х :meloman:
Только еще более технично и в меру быстро. Все ж у Креатора зачастую много туповатого рубилова проскакивает.

Отменный speed tech thrash с очень грамотными аранжировками и продюсированием :true:
Кста, звук на этом издании просто отменный :dance:


9/10

Спасибо за лося :thanx:

_________________


Top
 Profile E-mail  
 
 
PostPosted: 27 May 2013 
Генеральный thrasher
User avatar
Joined: 03 Oct 2008
Posts: 3738
Lоcаtion: Ханты-Мансийский АО
Age: 44
Name: Сергей
Переиздание обоих полнометражников A.R.G. выложил на рутрэкере...


Top
 Profile  
 
 
PostPosted: 20 Jul 2015 
Пионэръ
Joined: 28 Mar 2013
Posts: 11
Lоcаtion: Ireland
Name: Thomas
Can some kind person re upload this or a link to a mirror? - No bitorrent link thank you.


Top
 Profile E-mail  
 
 
PostPosted: 20 Jul 2015 
консэрваторъ
User avatar
Joined: 11 Aug 2007
Posts: 17300
Lоcаtion: Псков
Age: 45
Name: Сергей
Если здесь был первопресс, то видимо переиздание с трактора не подойдёт для топика...
На всякий случай http://darksound.ru/thrash-metal/167265 ... -2012.html
http://rutracker.org/forum/viewtopic.php?t=4449280
http://rutracker.org/forum/viewtopic.php?t=4446420

_________________
THRASH 'EM ALL


Top
 Profile E-mail  
 
 
PostPosted: 21 Jul 2015 
Пионэръ
Joined: 28 Mar 2013
Posts: 11
Lоcаtion: Ireland
Name: Thomas
Thanks splatty,

The 'darksound' link worked fine. :meloman:


Top
 Profile E-mail  
 
 
PostPosted: 21 Jul 2015 
Персональный статус
User avatar
Joined: 04 Mar 2012
Posts: 239
Lоcаtion: Саратов
Name: Василий
Ни у кого не завалялось первопресса? Возродить бы сцылочку :lloo:


Top
 Profile E-mail  
 
 
PostPosted: 21 Jul 2015 
консэрваторъ
User avatar
Joined: 11 Aug 2007
Posts: 17300
Lоcаtion: Псков
Age: 45
Name: Сергей
Glot wrote:
Label: Black Mark Records

Этот?.. А какой у него катнумбер?..

_________________
THRASH 'EM ALL


Top
 Profile E-mail  
 
 
PostPosted: 23 Jul 2015 
Персональный статус
User avatar
Joined: 04 Mar 2012
Posts: 239
Lоcаtion: Саратов
Name: Василий
Quote:
А какой у него катнумбер?

Если я правильно понял http://www.discogs.com/ARG-One-World-Without-The-End/release/1310115


Top
 Profile E-mail  
 
 
PostPosted: 23 Jul 2015 
\m/ 80 см сала \m/
User avatar
Joined: 12 Mar 2012
Posts: 2590
Age: 26
Name: Nick
У Оксаны есть на форуме: http://forum.darksage.ru/forum/80-5013-1
Еще и в осла закинул, тянет потихоньку.

_________________
1990 AUROPHON BRAINSTORM (Germany) - lossless
1994 MAUSOLEUM CLASSIX (Belgium-Germany) - lossless
1998 VA - GRIM HARVEST - Complete Metal Massacre Volumes I-XII


Top
 Profile  
 
 
PostPosted: 23 Jul 2015 
Персональный статус
User avatar
Joined: 04 Mar 2012
Posts: 239
Lоcаtion: Саратов
Name: Василий
Quote:
Everhard

:thanx:
Точно! А ведь наведывался туда. Да указанная ссылка на трактор с толку сбила. Подумал, что переиздат :pardon: .


Top
 Profile E-mail  
 
 
PostPosted: 23 Jul 2015 
консэрваторъ
User avatar
Joined: 11 Aug 2007
Posts: 17300
Lоcаtion: Псков
Age: 45
Name: Сергей
Everhard wrote:
У Оксаны есть на форуме

Народная ссылка там жива... Будешь перезаливать или чего делаем?.. В первый пост добавил кат/#... :oops:

_________________
THRASH 'EM ALL


Top
 Profile E-mail  
 
 
PostPosted: 25 Jul 2015 
Персональный статус
User avatar
Joined: 11 May 2011
Posts: 421
Lоcаtion: Omsk
Age: 29
Name: Alexander
A.R.G. (1991) One World Without The End [Germany 1st Press, Black Mark Production BMCD 15, 1991] {Gnoppy}

_________________
Enigma, unholy, ungodly, commander of the regeneration
Insidious and caught, implored by disgrace
Inhumation... The burial of man
Confession... Unify all evil


Top
 Profile E-mail  
 
 
PostPosted: 26 Jul 2015 
Хиппей (support team)
User avatar
Joined: 30 Jul 2007
Posts: 114881
Lоcаtion: Киев (Kyiv, UA)
Age: 46
Name: Andrey
A.R.G. - 2012 - One World Without The End [flac]

Image Image Image Image

Image Image Image Image

Image Image Image

mirror: iFolder l Narod l M-Cloud

log
Exact Audio Copy V0.99 prebeta 5 from 4. May 2009

Отчёт EAC об извлечении, выполненном 16. февраля 2013, 11:48

A.R.G. / One World Without The End

Дисковод: TSSTcorpCDDVDW SH-S202N Adapter: 0 ID: 1

Режим чтения : Достоверность
Использование точного потока : Да
Отключение кэша аудио : Да
Использование указателей C2 : Нет

Коррекция смещения при чтении : 6
Способность читать области Lead-in и Lead-out : Нет
Заполнение пропущенных сэмплов тишиной : Да
Удаление блоков с тишиной в начале и конце : Нет
При вычислениях CRC использовались нулевые сэмплы : Да
Интерфейс : Встроенный Win32-интерфейс для Win NT/2000

Выходной формат : Пользовательский кодировщик
Выбранный битрейт : 768 kBit/s
Качество : Высокий
Добавление ID3-тэга : Нет
Утилита сжатия : C:\Program Files\Exact Audio Copy\FLAC\FLAC.EXE
Дополнительные параметры : -6 -V -T "ARTIST=%a" -T "TITLE=%t" -T "ALBUM=%g" -T "DATE=%y" -T "TRACKNUMBER=%n" -T "GENRE=%m" -T "COMMENT=%e" %s -o %d


TOC извлечённого CD

Трек | Старт | Длительность | Начальный сектор | Конечный сектор
---------------------------------------------------------------------
1 | 0:00.00 | 1:58.47 | 0 | 8896
2 | 1:58.47 | 3:48.56 | 8897 | 26052
3 | 5:47.28 | 3:40.22 | 26053 | 42574
4 | 9:27.50 | 5:14.55 | 42575 | 66179
5 | 14:42.30 | 0:49.54 | 66180 | 69908
6 | 15:32.09 | 5:24.63 | 69909 | 94271
7 | 20:56.72 | 3:04.69 | 94272 | 108140
8 | 24:01.66 | 3:47.65 | 108141 | 125230
9 | 27:49.56 | 12:12.49 | 125231 | 180179
10 | 40:02.30 | 4:41.43 | 180180 | 201297
11 | 44:43.73 | 3:45.04 | 201298 | 218176
12 | 48:29.02 | 1:32.70 | 218177 | 225146


Характеристики диапазона извлечения и сообщения об ошибках

Выбранный диапазон

Имя файла D:\Lossless Music\A.R.G. - One World Without The End.wav

Пиковый уровень 99.9 %
Качество диапазона 100.0 %
CRC копии C79C5AF6
Копирование... OK

Ошибок не произошло


AccurateRip: сводка

Трек 1 нет в базе данных
Трек 2 нет в базе данных
Трек 3 нет в базе данных
Трек 4 нет в базе данных
Трек 5 нет в базе данных
Трек 6 нет в базе данных
Трек 7 нет в базе данных
Трек 8 нет в базе данных
Трек 9 нет в базе данных
Трек 10 нет в базе данных
Трек 11 нет в базе данных
Трек 12 нет в базе данных

Ни одного трека нет в базе AccurateRip

Конец отчёта

cue
REM GENRE "Thrash Metal"
REM DATE 2012
REM DISCID A40BB90C
REM COMMENT "ExactAudioCopy v0.99pb5"
PERFORMER "A.R.G."
TITLE "One World Without The End"
FILE "A.R.G. - One World Without The End.flac" WAVE
TRACK 01 AUDIO
TITLE "Intro:Last Dawn Of Humanity"
PERFORMER "A.R.G."
INDEX 01 00:00:00
TRACK 02 AUDIO
TITLE "Died For What"
PERFORMER "A.R.G."
INDEX 01 01:58:47
TRACK 03 AUDIO
TITLE "In The Depths Of Sanity"
PERFORMER "A.R.G."
INDEX 01 05:47:28
TRACK 04 AUDIO
TITLE "Adoration Of The Kings"
PERFORMER "A.R.G."
INDEX 01 09:27:50
TRACK 05 AUDIO
TITLE "Happy Times"
PERFORMER "A.R.G."
INDEX 01 14:42:30
TRACK 06 AUDIO
TITLE "Misfortune Along My Side (RIP II)"
PERFORMER "A.R.G."
INDEX 01 15:32:09
TRACK 07 AUDIO
TITLE "Hey Hey My My (Into The Black)"
PERFORMER "A.R.G."
INDEX 00 20:55:71
INDEX 01 20:56:72
TRACK 08 AUDIO
TITLE "Back To Life"
PERFORMER "A.R.G."
INDEX 00 23:58:47
INDEX 01 24:01:66
TRACK 09 AUDIO
TITLE "One World Without The End/Descent From The Heaven"
PERFORMER "A.R.G."
INDEX 01 27:49:56
TRACK 10 AUDIO
TITLE "Straybullet"
PERFORMER "A.R.G."
INDEX 01 40:02:30
TRACK 11 AUDIO
TITLE "In The Depths Of Sanity"
PERFORMER "A.R.G."
INDEX 00 44:39:65
INDEX 01 44:43:73
TRACK 12 AUDIO
TITLE "Skateboarding Death"
PERFORMER "A.R.G."
INDEX 01 48:29:02



A.R.G. - 2012 - Entrance [flac]

Image Image Image Image

Image Image Image Image

Image Image Image

mirror: iFolder l Narod l M-Cloud

log
Exact Audio Copy V0.99 prebeta 5 from 4. May 2009

Отчёт EAC об извлечении, выполненном 16. февраля 2013, 12:00

A.R.G. / Entrance

Дисковод: TSSTcorpCDDVDW SH-S202N Adapter: 0 ID: 1

Режим чтения : Достоверность
Использование точного потока : Да
Отключение кэша аудио : Да
Использование указателей C2 : Нет

Коррекция смещения при чтении : 6
Способность читать области Lead-in и Lead-out : Нет
Заполнение пропущенных сэмплов тишиной : Да
Удаление блоков с тишиной в начале и конце : Нет
При вычислениях CRC использовались нулевые сэмплы : Да
Интерфейс : Встроенный Win32-интерфейс для Win NT/2000

Выходной формат : Пользовательский кодировщик
Выбранный битрейт : 768 kBit/s
Качество : Высокий
Добавление ID3-тэга : Нет
Утилита сжатия : C:\Program Files\Exact Audio Copy\FLAC\FLAC.EXE
Дополнительные параметры : -6 -V -T "ARTIST=%a" -T "TITLE=%t" -T "ALBUM=%g" -T "DATE=%y" -T "TRACKNUMBER=%n" -T "GENRE=%m" -T "COMMENT=%e" %s -o %d


TOC извлечённого CD

Трек | Старт | Длительность | Начальный сектор | Конечный сектор
---------------------------------------------------------------------
1 | 0:00.00 | 1:47.38 | 0 | 8062
2 | 1:47.38 | 3:35.28 | 8063 | 24215
3 | 5:22.66 | 2:12.19 | 24216 | 34134
4 | 7:35.10 | 5:07.56 | 34135 | 57215
5 | 12:42.66 | 1:07.04 | 57216 | 62244
6 | 13:49.70 | 3:12.28 | 62245 | 76672
7 | 17:02.23 | 5:26.24 | 76673 | 101146
8 | 22:28.47 | 4:15.27 | 101147 | 120298
9 | 26:43.74 | 5:10.67 | 120299 | 143615
10 | 31:54.66 | 3:17.14 | 143616 | 158404
11 | 35:12.05 | 4:42.25 | 158405 | 179579
12 | 39:54.30 | 2:51.08 | 179580 | 192412
13 | 42:45.38 | 0:57.13 | 192413 | 196700
14 | 43:42.51 | 4:33.45 | 196701 | 217220
15 | 48:16.21 | 3:11.25 | 217221 | 231570
16 | 51:27.46 | 1:41.62 | 231571 | 239207


Характеристики диапазона извлечения и сообщения об ошибках

Выбранный диапазон

Имя файла D:\Lossless Music\A.R.G. - Entrance.wav

Пиковый уровень 100.0 %
Качество диапазона 100.0 %
CRC копии 7F10D44B
Копирование... OK

Ошибок не произошло


AccurateRip: сводка

Трек 1 нет в базе данных
Трек 2 нет в базе данных
Трек 3 нет в базе данных
Трек 4 нет в базе данных
Трек 5 нет в базе данных
Трек 6 нет в базе данных
Трек 7 нет в базе данных
Трек 8 нет в базе данных
Трек 9 нет в базе данных
Трек 10 нет в базе данных
Трек 11 нет в базе данных
Трек 12 нет в базе данных
Трек 13 нет в базе данных
Трек 14 нет в базе данных
Трек 15 нет в базе данных
Трек 16 нет в базе данных

Ни одного трека нет в базе AccurateRip

Конец отчёта

cue
REM GENRE "Thrash Metal"
REM DATE 2012
REM DISCID DC0C7510
REM COMMENT "ExactAudioCopy v0.99pb5"
PERFORMER "A.R.G."
TITLE "Entrance"
FILE "A.R.G. - Entrance.flac" WAVE
TRACK 01 AUDIO
TITLE "Intro:The Ultimate Entrance"
PERFORMER "A.R.G."
INDEX 01 00:00:00
TRACK 02 AUDIO
TITLE "Pesticide"
PERFORMER "A.R.G."
INDEX 01 01:47:38
TRACK 03 AUDIO
TITLE "Something In The Dark"
PERFORMER "A.R.G."
INDEX 00 05:20:74
INDEX 01 05:22:66
TRACK 04 AUDIO
TITLE "Perforation"
PERFORMER "A.R.G."
INDEX 00 07:32:63
INDEX 01 07:35:10
TRACK 05 AUDIO
TITLE "Chemical Snot"
PERFORMER "A.R.G."
INDEX 01 12:42:66
TRACK 06 AUDIO
TITLE "Prevailing Sickness"
PERFORMER "A.R.G."
INDEX 00 13:47:01
INDEX 01 13:49:70
TRACK 07 AUDIO
TITLE "RIP"
PERFORMER "A.R.G."
INDEX 00 16:59:58
INDEX 01 17:02:23
TRACK 08 AUDIO
TITLE "Heathenism In Penitentiary"
PERFORMER "A.R.G."
INDEX 00 22:26:24
INDEX 01 22:28:47
TRACK 09 AUDIO
TITLE "Window To Unknown"
PERFORMER "A.R.G."
INDEX 00 26:41:55
INDEX 01 26:43:74
TRACK 10 AUDIO
TITLE "Foul Vigour"
PERFORMER "A.R.G."
INDEX 00 31:52:48
INDEX 01 31:54:66
TRACK 11 AUDIO
TITLE "Inter Arma"
PERFORMER "A.R.G."
INDEX 00 35:10:14
INDEX 01 35:12:05
TRACK 12 AUDIO
TITLE "Aggressive Confessor"
PERFORMER "A.R.G."
INDEX 00 39:49:73
INDEX 01 39:54:30
TRACK 13 AUDIO
TITLE "Massey Ferguson"
PERFORMER "A.R.G."
INDEX 00 42:44:36
INDEX 01 42:45:38
TRACK 14 AUDIO
TITLE "Heathenism In Penitentiary"
PERFORMER "A.R.G."
INDEX 00 43:40:42
INDEX 01 43:42:51
TRACK 15 AUDIO
TITLE "Prevailnig Sickness"
PERFORMER "A.R.G."
INDEX 00 48:12:64
INDEX 01 48:16:21
TRACK 16 AUDIO
TITLE "Mosher"
PERFORMER "A.R.G."
INDEX 00 51:26:38
INDEX 01 51:27:46

_________________


Top
 Profile E-mail  
 
Display posts from previous:  Sort by  
Post new topic Reply to topic  [ 18 posts ] 

All times are UTC + 3 hours


Who is online

Users browsing this forum: No registered users and 3 guests


You cannot post new topics in this forum
You cannot reply to topics in this forum
You cannot edit your posts in this forum
You cannot delete your posts in this forum
You cannot post attachments in this forum

Search for:
Яндекс.Метрика
Powered by phpBB © 2000, 2002, 2005, 2007 phpBB Group