\m/ 80's metal \m/

Информационно-аналитический форум "80 см пыли" (In Search We Trust) "У нас никто никуда не спешит"
Me For You - http://me-4u.com
It is currently 21 Oct 2018

All times are UTC + 3 hours

Spoiler
Chat - temporary registration for foreign users (please leave your application here)







Post new topic Reply to topic  [ 4 posts ] 
Author Message
 
PostPosted: 12 Feb 2010 
хард н хэвщик (support team)
User avatar
Joined: 02 Jun 2008
Posts: 16880
Lоcаtion: Н.Новгород
Age: 31
Name: Артем
Image Image

April Wine - 1973 - Electric Jewels

Жанр: Classic Rock
Год выхода альбома: 1993
Год выпуска диска: 1993
Производитель диска: Canada
Каталожный номер: Q2 6504
Аудио кодек: FLAC
Тип рипа: image+.cue
Битрейт аудио: lossless
Продолжительность: 38:05
первоисточник: http://torrents.ru/forum/viewtopic.php?t=2735284

Трэклист:
01 - Weeping Widow (3:54)
02 - Just Like That (3:09)
03 - Electric Jewels (5:59)
04 - You Opened up My Eyes (4:50)
05 - Come on Along (4:29)
06 - Lady Run, Lady Hide (2:57)
07 - I can Hear You Callin' (3:25)
08 - Cat's Claw (4:46)
09 - The Band has Just Begun (4:12)

http://ifolder.ru/16370462
http://ifolder.ru/16370463
http://ifolder.ru/16370464


Top
 Profile  
 
 
PostPosted: 12 Feb 2010 
Почётный металлург
User avatar
Joined: 15 Sep 2007
Posts: 4357
Lоcаtion: Хабаровск
Age: 58
Name: чуть выше
Благодарю покорнейше! :thanx: :thanx: :thanx:

_________________
Коль будешь людей ты ослами честить,
тебе человеком меж них не прослыть!
(Саади, персидский поэт, 13в.)


Top
 Profile  
 
 
PostPosted: 12 Feb 2010 
труъ антисионист
User avatar
Joined: 01 Aug 2007
Posts: 4541
Lоcаtion: Откуда и большинство из нас
Age: 37
Name: Дядя Вова
А лог то никудышный.
Log
Exact Audio Copy V0.99 prebeta 5 from 4. May 2009
EAC extraction logfile from 5. February 2010, 15:03
April Wine / Electric Jewels
Used drive : SONY DVD RW DRU-190A Adapter: 5 ID: 0
Read mode : Secure
Utilize accurate stream : Yes
Defeat audio cache : No
Make use of C2 pointers : No
Read offset correction : 0
Overread into Lead-In and Lead-Out : No
Fill up missing offset samples with silence : Yes
Delete leading and trailing silent blocks : No
Null samples used in CRC calculations : No
Used interface : Native Win32 interface for Win NT & 2000
Used output format : User Defined Encoder
Selected bitrate : 768 kBit/s
Quality : High
Add ID3 tag : No
Command line compressor : C:\Program Files\Exact Audio Copy\FLAC\FLAC.EXE
Additional command line options : -8 -V --replay-gain -T "ARTIST=%a" -T "TITLE=%t" -T "ALBUM=%g" -T "DATE=%y" -T "TRACKNUMBER=0" %s -o %d
TOC of the extracted CD
Track | Start | Length | Start sector | End sector
---------------------------------------------------------
1 | 0:00.32 | 3:57.23 | 32 | 17829
2 | 3:57.55 | 3:11.52 | 17830 | 32206
3 | 7:09.32 | 6:01.05 | 32207 | 59286
4 | 13:10.37 | 4:51.40 | 59287 | 81151
5 | 18:02.02 | 4:31.28 | 81152 | 101504
6 | 22:33.30 | 3:00.60 | 101505 | 115064
7 | 25:34.15 | 3:30.42 | 115065 | 130856
8 | 29:04.57 | 4:48.18 | 130857 | 152474
9 | 33:53.00 | 4:12.10 | 152475 | 171384
Range status and errors
Selected range
Filename E:\!!\April Wine\1973 - Electric Jewels\April Wine - 1973 - Electric Jewels.wav
Peak level 94.6 %
Range quality 100.0 %
Copy CRC FC444E90
Copy OK
No errors occurred
End of status report

_________________
Image
Image


Top
 Profile  
 
 
PostPosted: 14 Feb 2010 
Хиппей (support team)
User avatar
Joined: 30 Jul 2007
Posts: 107079
Lоcаtion: Киев (Kyiv, UA)
Age: 45
Name: Andrey
Брак, но слушать через комп можно :thanx:

_________________


Top
 Profile E-mail  
 
Display posts from previous:  Sort by  
Post new topic Reply to topic  [ 4 posts ] 

All times are UTC + 3 hours


Who is online

Users browsing this forum: No registered users and 3 guests


You cannot post new topics in this forum
You cannot reply to topics in this forum
You cannot edit your posts in this forum
You cannot delete your posts in this forum
You cannot post attachments in this forum

Search for:
Яндекс.Метрика
Powered by phpBB © 2000, 2002, 2005, 2007 phpBB Group