\m/ 80's metal \m/

Информационно-аналитический форум "80 см пыли" (In Search We Trust) "У нас никто никуда не спешит"
Железнодорожная биржа - RailAgent
It is currently 18 Jun 2018

All times are UTC + 3 hours

Spoiler
Chat - temporary registration for foreign users (please leave your application here)







Post new topic Reply to topic  [ 5 posts ] 
Author Message
 
PostPosted: 07 Feb 2010 
metallpaparazzy
User avatar
Joined: 20 Dec 2009
Posts: 674
Lоcаtion: Днепропетровск
Age: 43
Name: Геннадий
По просьбе metaleonid выпускаю сего зверька... трэклист можно посмотреть тут
viewtopic.php?f=105&t=7188
добавил полный комплект картинок
log, cd1
Отчёт EAC об извлечении, выполненном 4. февраля 2010, 23:01 для диска:
Armored Saint / Nod to the Old School

Дисковод: Optiarc DVD RW AD-7170S Adapter: 1 ID: 1
Режим чтения: Достоверный (C2: нет, Точный поток: да, Отключение кэша: да)
Коррекция смещения при чтении: 48
Способность читать области Lead-in и Lead-out : Нет

Выходной формат: Внутренние WAV-операции
44.100 Гц; 16 бит; стерео

Другие параметры:
Заполнение пропущенных сэмплов тишиной : Да
Удаление блоков с тишиной в начале и конце : Нет
Установленный внешний ASPI-интерфейс


Характеристики диапазона извлечения и сообщения об ошибках
Выбранный диапазон
Имя файла C:\Documents and Settings\Admin\Рабочий стол\Armored Saint - Nod to the Old School .wav

Пиковый уровень 99.1 %
Качество диапазона 99.9 %
CRC 8C5B8267
Копирование... OK

Ошибок не произошло

Конец отчёта


log, cd2
Отчёт EAC об извлечении, выполненном 4. февраля 2010, 23:42 для диска:
Armored Saint / Nod to the Old School (bonus cd)

Дисковод: Optiarc DVD RW AD-7170S Adapter: 1 ID: 1
Режим чтения: Достоверный (C2: нет, Точный поток: да, Отключение кэша: да)
Коррекция смещения при чтении: 48
Способность читать области Lead-in и Lead-out : Нет

Выходной формат: Внутренние WAV-операции
44.100 Гц; 16 бит; стерео

Другие параметры:
Заполнение пропущенных сэмплов тишиной : Да
Удаление блоков с тишиной в начале и конце : Нет
Установленный внешний ASPI-интерфейс


Характеристики диапазона извлечения и сообщения об ошибках
Выбранный диапазон
Имя файла C:\Documents and Settings\Admin\Рабочий стол\Armored Saint - Nod to the Old School (bonus cd).wav

Пиковый уровень 100.0 %
Качество диапазона 100.0 %
CRC 6DCA2989
Копирование... OK

Ошибок не произошло

Конец отчёта


cue, cd1
REM GENRE Metal
REM DATE 2001
REM DISCID 0A10F212
REM COMMENT "ExactAudioCopy v0.95b4"
PERFORMER "Armored Saint"
TITLE "Nod to the Old School "
FILE "Armored Saint - Nod to the Old School .wav" WAVE
TRACK 01 AUDIO
TITLE " Real Swagger "
PERFORMER "Armored Saint"
INDEX 01 00:00:00
TRACK 02 AUDIO
TITLE "Unstable"
PERFORMER "Armored Saint"
INDEX 01 04:20:42
TRACK 03 AUDIO
TITLE "March of the Saint (2001 version)"
PERFORMER "Armored Saint"
INDEX 01 09:08:67
TRACK 04 AUDIO
TITLE "Day of the Eagle "
PERFORMER "Armored Saint"
INDEX 01 13:04:62
TRACK 05 AUDIO
TITLE "Never Satisfied (Judas Priest cover)"
PERFORMER "Armored Saint"
INDEX 00 18:36:31
INDEX 01 18:37:32
TRACK 06 AUDIO
TITLE "Tainted Past (2001 acoustic version) "
PERFORMER "Armored Saint"
INDEX 00 23:11:51
INDEX 01 23:12:55
TRACK 07 AUDIO
TITLE "After Me, the Flood (live)"
PERFORMER "Armored Saint"
INDEX 00 26:24:43
INDEX 01 26:26:45
TRACK 08 AUDIO
TITLE "Creepy Feelings (live) "
PERFORMER "Armored Saint"
INDEX 01 31:39:47
TRACK 09 AUDIO
TITLE "Lesson Well Learned "
PERFORMER "Armored Saint"
INDEX 00 36:34:08
INDEX 01 36:35:10
TRACK 10 AUDIO
TITLE "False Alarm "
PERFORMER "Armored Saint"
INDEX 00 39:26:12
INDEX 01 39:27:15
TRACK 11 AUDIO
TITLE "On the Way"
PERFORMER "Armored Saint"
INDEX 00 43:29:05
INDEX 01 43:30:06
TRACK 12 AUDIO
TITLE "Stricken by Fate "
PERFORMER "Armored Saint"
INDEX 01 48:13:45
TRACK 13 AUDIO
TITLE " Reign of Fire"
PERFORMER "Armored Saint"
INDEX 01 51:42:30
TRACK 14 AUDIO
TITLE "Betty '79 "
PERFORMER "Armored Saint"
INDEX 00 55:56:04
INDEX 01 55:57:07
TRACK 15 AUDIO
TITLE "People"
PERFORMER "Armored Saint"
INDEX 01 56:51:34
TRACK 16 AUDIO
TITLE "Get Lost "
PERFORMER "Armored Saint"
INDEX 00 60:58:29
INDEX 01 60:59:32
TRACK 17 AUDIO
TITLE "Nothing Between the Ears"
PERFORMER "Armored Saint"
INDEX 01 64:40:62
TRACK 18 AUDIO
TITLE "Pirates"
PERFORMER "Armored Saint"
INDEX 00 69:07:44
INDEX 01 69:08:47


cue, cd2
REM GENRE Metal
REM DATE 2001
REM DISCID 2F104A04
REM COMMENT "ExactAudioCopy v0.95b4"
PERFORMER "Armored Saint "
TITLE "Nod to the Old School (bonus cd)"
FILE "Armored Saint - Nod to the Old School (bonus cd).wav" WAVE
TRACK 01 AUDIO
TITLE "Medieval Nightmares "
PERFORMER "Armored Saint "
INDEX 01 00:00:00
TRACK 02 AUDIO
TITLE "You Can Run But You Can't Hide"
PERFORMER "Armored Saint "
INDEX 00 04:52:67
INDEX 01 05:02:67
TRACK 03 AUDIO
TITLE "Tongue And Cheek (1989 4-Track Demo)"
PERFORMER "Armored Saint "
INDEX 00 08:04:57
INDEX 01 08:05:59


ARMORED SAINT 2001.rar (630,1 MB)
http://www.multiupload.com/HMNABREZJ1

есть еще 2000, "REVELATION'', тоже лимит. эдит.: добавлена одина песня бонусом и bonus CD-ROM including the complete "A Trip Thru Red Times" video. попоже залью... клевый албум! :true:


Top
 Profile E-mail  
 
 
PostPosted: 08 Feb 2010 
Почётный металлург
User avatar
Joined: 15 Sep 2007
Posts: 4357
Lоcаtion: Хабаровск
Age: 58
Name: чуть выше
Спасибо! И жду следующий.
Ранние бы найти в лосях. Чот нигде не вижу.

_________________
Коль будешь людей ты ослами честить,
тебе человеком меж них не прослыть!
(Саади, персидский поэт, 13в.)


Top
 Profile  
 
 
PostPosted: 08 Feb 2010 
5-speed satisfactor
User avatar
Joined: 16 Feb 2009
Posts: 3505
Lоcаtion: New York, USA
Age: 40
Name: Leonid
:thanx: огромное. Завтра буду качать.

_________________
Death rules! Metal to all who oppose!


Top
 Profile  
 
 
PostPosted: 09 Feb 2010 
metallpaparazzy
User avatar
Joined: 20 Dec 2009
Posts: 674
Lоcаtion: Днепропетровск
Age: 43
Name: Геннадий
Sergey wrote:
И жду следующий.

архив уже готов, как время будет -- залью. вот только инэт че-то по вечерам постоянно обрывается :dash: :fingal: а с утра и днем надо на работу :cry:
ну, ниче, ведь у нас никто никуда не спешит... :nunu:


Top
 Profile E-mail  
 
 
PostPosted: 09 Feb 2010 
Почётный металлург
User avatar
Joined: 15 Sep 2007
Posts: 4357
Lоcаtion: Хабаровск
Age: 58
Name: чуть выше
:dance:

_________________
Коль будешь людей ты ослами честить,
тебе человеком меж них не прослыть!
(Саади, персидский поэт, 13в.)


Top
 Profile  
 
Display posts from previous:  Sort by  
Post new topic Reply to topic  [ 5 posts ] 

All times are UTC + 3 hours


Who is online

Users browsing this forum: No registered users and 1 guest


You cannot post new topics in this forum
You cannot reply to topics in this forum
You cannot edit your posts in this forum
You cannot delete your posts in this forum
You cannot post attachments in this forum

Search for:
Яндекс.Метрика
Powered by phpBB © 2000, 2002, 2005, 2007 phpBB Group