\m/ 80's metal \m/

Информационно-аналитический форум "80 см пыли" (In Search We Trust) "У нас никто никуда не спешит"
Me For You - http://me-4u.com
It is currently 16 Oct 2019

All times are UTC + 3 hours

Spoiler
Chat - temporary registration for foreign users (please leave your application here)







Post new topic Reply to topic  [ 22 posts ]  Go to page 1, 2  Next
Author Message
 
PostPosted: 31 Jan 2010 
metallpaparazzy
User avatar
Joined: 20 Dec 2009
Posts: 674
Lоcаtion: Днепропетровск
Age: 44
Name: Геннадий
Assassin - Interstellar Experience 1988 (1st press SPV 85-7521)

Image

Line-up :
Robert Gonnella - vocals
Dinko Vekic - guitars
Michael Hoffman - guitars
Markus "Lulle" Ludwig - bass
Frank Nellen - drums

1. Abstract War 05:14
2. AGD 04:12
3. A Message To Survive 03:18
4. Pipeline 01:24
5. Resolution 588 04:14
6. Junk Food 03:38
7. Interstellar Experience 03:33
8. Baka 02:30

The CD in 1988 had one bonus song "Strange World" compared to the LP.

Narod flac & scans.

cue
REM GENRE "Thrash Metal"
REM DATE 1988
REM DISCID 7207E709
REM COMMENT "ExactAudioCopy v0.95b4"
PERFORMER "Assassin (Deu)"
TITLE "Interstellar Experience"
FILE "Assassin (Deu) - Interstellar Experience.wav" WAVE
TRACK 01 AUDIO
TITLE "1. Abstract War "
PERFORMER "Assassin (Deu)"
INDEX 01 00:00:00
TRACK 02 AUDIO
TITLE "2. AGD"
PERFORMER "Assassin (Deu)"
INDEX 00 05:16:00
INDEX 01 05:17:00
TRACK 03 AUDIO
TITLE "3. A Message To Survive "
PERFORMER "Assassin (Deu)"
INDEX 00 09:31:25
INDEX 01 09:31:27
TRACK 04 AUDIO
TITLE "4. Pipeline"
PERFORMER "Assassin (Deu)"
INDEX 00 12:50:25
INDEX 01 12:52:20
TRACK 05 AUDIO
TITLE "5. Resolution 588"
PERFORMER "Assassin (Deu)"
INDEX 00 14:17:25
INDEX 01 14:19:40
TRACK 06 AUDIO
TITLE "6. Junk Food "
PERFORMER "Assassin (Deu)"
INDEX 00 18:39:00
INDEX 01 18:39:65
TRACK 07 AUDIO
TITLE "7. Interstellar Experience "
PERFORMER "Assassin (Deu)"
INDEX 00 22:19:50
INDEX 01 22:20:57
TRACK 08 AUDIO
TITLE "8. Baka "
PERFORMER "Assassin (Deu)"
INDEX 00 25:56:57
INDEX 01 25:56:60
TRACK 09 AUDIO
TITLE "9. Strange World"
PERFORMER "Assassin (Deu)"
INDEX 00 28:25:25
INDEX 01 28:27:25

log
Отчёт EAC об извлечении, выполненном 29. января 2010, 23:45 для диска:
Assassin (Deu) / Interstellar Experience

Дисковод: Optiarc DVD RW AD-7170S Adapter: 1 ID: 1
Режим чтения: Достоверный (C2: нет, Точный поток: да, Отключение кэша: да)
Коррекция смещения при чтении: 48
Способность читать области Lead-in и Lead-out : Нет

Выходной формат: Внутренние WAV-операции
44.100 Гц; 16 бит; стерео

Другие параметры:
Заполнение пропущенных сэмплов тишиной : Да
Удаление блоков с тишиной в начале и конце : Нет
Установленный внешний ASPI-интерфейс


Характеристики диапазона извлечения и сообщения об ошибках
Выбранный диапазон
Имя файла C:\Documents and Settings\Admin\Рабочий стол\Assassin (Deu) - Interstellar Experience.wav

Пиковый уровень 100.0 %
Качество диапазона 99.9 %
CRC 43FD0FBD
Копирование... OK

Ошибок не произошло

Конец отчёта


Вот, как обещал, делюсь своим диамантом :true: А обошелси он мне всего лишь за 5 или 6 $, года 3 назад на балке надыбал... немножко потертый, но все проходит :dance:
Пробил сканер, - картинки все присутствуют.

Приятного трэшового угарчика, коллеги! :crazy:

:punko: :band: :garmo: :boo: :salieri: :drink:


Top
 Profile E-mail  
 
 
PostPosted: 31 Jan 2010 
Metal Collector
User avatar
Joined: 16 Nov 2008
Posts: 1260
Lоcаtion: Химки
Age: 36
Name: Андрей
РЕСПЕКТИЩЕ!!! :true: И вправду легко раритет отхватил :)


Top
 Profile E-mail  
 
 
PostPosted: 31 Jan 2010 
Персональный статус
User avatar
Joined: 24 Aug 2007
Posts: 303
Lоcаtion: Иваново
Age: 46
Name: Вован
Спасибки!!!


Top
 Profile E-mail  
 
 
PostPosted: 31 Jan 2010 
Анатолий
User avatar
Joined: 18 Oct 2008
Posts: 3572
Lоcаtion: Армавир
Age: 42
Name: Анатолий
metallroll

Вельми понеже! :thanx:


Top
 Profile E-mail  
 
 
PostPosted: 31 Jan 2010 
5-speed satisfactor
User avatar
Joined: 16 Feb 2009
Posts: 3774
Lоcаtion: New York, USA
Age: 41
Name: Leonid
:thanx:

_________________
Death rules! Metal to all who oppose!


Top
 Profile  
 
 
PostPosted: 31 Jan 2010 
Генеральный thrasher
User avatar
Joined: 03 Oct 2008
Posts: 3738
Lоcаtion: Ханты-Мансийский АО
Age: 44
Name: Сергей
:thanx: :meloman:


Top
 Profile  
 
 
PostPosted: 31 Jan 2010 
Хиппей (support team)
User avatar
Joined: 30 Jul 2007
Posts: 114847
Lоcаtion: Киев (Kyiv, UA)
Age: 46
Name: Andrey
:thanx: :true:
mirror (lossless): MultiUp l Narod

_________________


Top
 Profile E-mail  
 
 
PostPosted: 31 Jan 2010 
Доктор энтомологии
User avatar
Joined: 22 Jan 2009
Posts: 9925
Lоcаtion: Даугавпилс
Age: 44
Name: Алексей
:true: :thanx:


Top
 Profile  
 
 
PostPosted: 02 Feb 2010 
Прокъмитолист
User avatar
Joined: 12 Aug 2007
Posts: 6623
Lоcаtion: Санктъ-Петербуркъ
Age: 51
Name: Олекъ
Гена, спасибо! :thanx:

_________________
прокъметол - это музыко, от которово есть прок (ы)


Top
 Profile  
 
 
PostPosted: 02 Feb 2010 
А может смените мне статус?..
User avatar
Joined: 01 Jun 2008
Posts: 559
Lоcаtion: Россия
Age: 43
Name: Вадик
Спасибо! :dance:


Top
 Profile  
 
 
PostPosted: 03 Feb 2010 
консэрваторъ
User avatar
Joined: 11 Aug 2007
Posts: 17300
Lоcаtion: Псков
Age: 45
Name: Сергей
Круть :true:

_________________
THRASH 'EM ALL


Top
 Profile E-mail  
 
 
PostPosted: 04 Feb 2010 
Труъ
User avatar
Joined: 15 Dec 2008
Posts: 131
Lоcаtion: Донбасс
Age: 46
Name: Евгений
Cпасибо за переиздание! :thanx:


Top
 Profile  
 
 
PostPosted: 04 Feb 2010 
А может смените мне статус?..
User avatar
Joined: 24 Dec 2008
Posts: 648
Age: 45
Name: Дмитрий
Благодарю!


Top
 Profile  
 
 
PostPosted: 04 Aug 2011 
консэрваторъ
User avatar
Joined: 11 Aug 2007
Posts: 17300
Lоcаtion: Псков
Age: 45
Name: Сергей
metallroll wrote:
TITLE "9. Strange World"
PERFORMER "Assassin (Deu)"
INDEX 00 28:25:25
INDEX 01 28:27:25

А почему в трек-листе не указано?

_________________
THRASH 'EM ALL


Top
 Profile E-mail  
 
 
PostPosted: 08 Aug 2011 
metallpaparazzy
User avatar
Joined: 20 Dec 2009
Posts: 674
Lоcаtion: Днепропетровск
Age: 44
Name: Геннадий
ну, наверное, потому что указано чуть ниже под ним... ;)
metallroll wrote:
The CD in 1988 had one bonus song "Strange World" compared to the LP.

да и на обложке налеплено. :oops:


Top
 Profile E-mail  
 
 
PostPosted: 20 Aug 2011 
консэрваторъ
User avatar
Joined: 11 Aug 2007
Posts: 17300
Lоcаtion: Псков
Age: 45
Name: Сергей
Думаю, что лучше в трек-листе его всё же обозначить...

_________________
THRASH 'EM ALL


Top
 Profile E-mail  
 
 
PostPosted: 23 Jun 2012 
Персональный статус
User avatar
Joined: 11 May 2011
Posts: 421
Lоcаtion: Omsk
Age: 29
Name: Alexander
Вроде отписывался тут уже, а коммента нет :scratch:
Геннадию спасибо за сей диск :kz:

_________________
Enigma, unholy, ungodly, commander of the regeneration
Insidious and caught, implored by disgrace
Inhumation... The burial of man
Confession... Unify all evil


Top
 Profile E-mail  
 
 
PostPosted: 20 Sep 2014 
\m/ 80 см сала \m/
User avatar
Joined: 12 Mar 2012
Posts: 2590
Age: 26
Name: Nick
Заменю японское сплитовое переиздание на оригинал :thanx:

_________________
1990 AUROPHON BRAINSTORM (Germany) - lossless
1994 MAUSOLEUM CLASSIX (Belgium-Germany) - lossless
1998 VA - GRIM HARVEST - Complete Metal Massacre Volumes I-XII


Top
 Profile  
 
 
PostPosted: 19 Nov 2016 
консэрваторъ
User avatar
Joined: 11 Aug 2007
Posts: 17300
Lоcаtion: Псков
Age: 45
Name: Сергей
metallroll wrote:
cue
REM GENRE "Thrash Metal"
REM DATE 1988
REM DISCID 7207E709
REM COMMENT "ExactAudioCopy v0.95b4"
PERFORMER "Assassin (Deu)"
TITLE "Interstellar Experience"
FILE "Assassin (Deu) - Interstellar Experience.wav" WAVE

Правильно в куе писать flac, а то ругается софт... :oops:
В любом случае, спасибо и здесь за первопресс и живые ссыли!.. :thanx: :thanx:

_________________
THRASH 'EM ALL


Top
 Profile E-mail  
 
 
PostPosted: 23 Nov 2016 
Хиппей (support team)
User avatar
Joined: 30 Jul 2007
Posts: 114847
Lоcаtion: Киев (Kyiv, UA)
Age: 46
Name: Andrey
splatty wrote:
Правильно в куе писать flac, а то ругается софт... :oops:

Вполне может быть,ч то это я перепаковал архив, ужав вавы во флаки :oops:
Хотя, в первичном посте от Генки тоже указан флак. так что.. В общем, на дату архива или внутренностей не помешает глянуть.

_________________


Top
 Profile E-mail  
 
Display posts from previous:  Sort by  
Post new topic Reply to topic  [ 22 posts ]  Go to page 1, 2  Next

All times are UTC + 3 hours


Who is online

Users browsing this forum: No registered users and 1 guest


You cannot post new topics in this forum
You cannot reply to topics in this forum
You cannot edit your posts in this forum
You cannot delete your posts in this forum
You cannot post attachments in this forum

Search for:
Яндекс.Метрика
Powered by phpBB © 2000, 2002, 2005, 2007 phpBB Group