\m/ 80's metal \m/

Информационно-аналитический форум "80 см пыли" (In Search We Trust) "У нас никто никуда не спешит"
Me For You - http://me-4u.com
It is currently 19 Oct 2019

All times are UTC + 3 hours

Spoiler
Chat - temporary registration for foreign users (please leave your application here)







Post new topic Reply to topic  [ 11 posts ] 
Author Message
 
PostPosted: 01 Dec 2009 
Персональный статус
User avatar
Joined: 02 Feb 2009
Posts: 236
Lоcаtion: Тульская область
Age: 53
Name: Владимир
Image

Year: 1989 (Reissue 2003)
Style: Heavy Metal
Country: Germany (Nordhorn, Lower Saxony)
Format: FLAC + log + cue + covers (front, back, CD)
Cat #: Japanese VICP-5315
Size: 454 Mb
Source: Exploded (MMT)

Tracklist
1. Wonderland 05:01
2. Back To Attack 03:18
3. You're Not Free 04:38
4. Live Or Die 05:35
5. Blind Man 05:30
6. The Battle's Lost 03:56
7. Death Rider 09:19
8. The Last Surviving Man 05:11
9. Destiny Of War 04:21
10. In This Night 03:54
Japan Bonus Tracks
11. Way Out Of Hell
12.Wardance

Line-Up
Ricky Van Helden - Lead- & Backing-Vocals, Bass Guitar, Keyboards
Gerd Sossnierz - Electric Lead- & Rhythm Guitar
Chreddy Riepert - Electric & Acoustic Lead- & Rhythm Guitar
Zacki Tsoukas - Drums

Engineer.: Andreas Torkler, Assistant.: Bernd Reuss & Karl Godejohann.
Produced by Ricky Van Helden 1989.

Recorded in April 1989 at Eastwood Musik Studio, Spenge/ Germany. Re-released
in 1993

Log
EAC extraction logfile from 28. September 2009, 21:48 for CD
Attack / Destinies Of War

Used drive : Optiarc DVD RW AD-7200S Adapter: 2 ID: 0
Read mode : Secure with NO C2, accurate stream, disable cache
Read offset correction : 48
Overread into Lead-In and Lead-Out : No

Used output format : C:\Program Files\Exact Audio Copy\FLAC.EXE (User Defined Encoder)
32 kBit/s
Additional command line options : -6 -V %s

Other options :
Fill up missing offset samples with silence : Yes
Delete leading and trailing silent blocks : No
Native Win32 interface for Win NT & 2000


Range status and errors
Selected range
Filename F:\- Newest Rips\Attack - Destinies Of War 1993.flac.wav

Peak level 100.0 %
Range quality 99.9 %
CRC 8C637033
Copy OK

No errors occured

End of status report

Куй
REM GENRE Heavy Metal
REM DATE 1989/1993
PERFORMER "Attack"
TITLE "Destinies Of War [Japanese Ed. VICP 5315]"
FILE "Attack - Destinies Of War 1993.flac" WAVE
TRACK 01 AUDIO
TITLE "Wonderland"
INDEX 00 00:00:00
INDEX 01 00:00:37
TRACK 02 AUDIO
TITLE "Back To Attack"
INDEX 00 05:04:66
INDEX 01 05:05:57
TRACK 03 AUDIO
TITLE "You're Not Free"
INDEX 00 08:25:51
INDEX 01 08:26:00
TRACK 04 AUDIO
TITLE "Live Or Die"
INDEX 00 13:06:31
INDEX 01 13:06:65
TRACK 05 AUDIO
TITLE "Blind Man"
INDEX 01 18:42:05
TRACK 06 AUDIO
TITLE "The Battle's Lost"
INDEX 00 24:14:13
INDEX 01 24:14:27
TRACK 07 AUDIO
TITLE "Death Rider"
INDEX 00 28:12:03
INDEX 01 28:12:55
TRACK 08 AUDIO
TITLE "The Last Surviving Man"
INDEX 01 37:32:40
TRACK 09 AUDIO
TITLE "Destiny Of War"
INDEX 01 42:45:02
TRACK 10 AUDIO
TITLE "In This Night"
INDEX 00 47:04:33
INDEX 01 47:04:52
TRACK 11 AUDIO
TITLE "Way Out Of Hell *"
INDEX 01 50:58:12
TRACK 12 AUDIO
TITLE "Wardance *"
INDEX 00 54:11:71
INDEX 01 54:12:17


ifolder1
ifolder2
ifolder3
ifolder4
ifolder5

_________________
http://img254.imageshack.us/img254/1015 ... 743574.gif
http://img140.imageshack.us/img140/7192 ... arlogo.jpg


Last edited by crimson22 on 01 Dec 2009, edited 1 time in total.

Top
 Profile  
 
 
PostPosted: 01 Dec 2009 
Прокъмитолист
User avatar
Joined: 12 Aug 2007
Posts: 6627
Lоcаtion: Санктъ-Петербуркъ
Age: 52
Name: Олекъ
crimson22 wrote:
Спасибо неизвестному автору релиза с забугорного трекера

неизвестного релизера кличут Exploded :pardon: у меня релиз ММТ с таким же логом, Володь :oops:

_________________
прокъметол - это музыко, от которово есть прок (ы)


Top
 Profile  
 
 
PostPosted: 01 Dec 2009 
Персональный статус
User avatar
Joined: 02 Feb 2009
Posts: 236
Lоcаtion: Тульская область
Age: 53
Name: Владимир
spiralarch wrote:
crimson22 wrote:
Спасибо неизвестному автору релиза с забугорного трекера

неизвестного релизера кличут Exploded :pardon: у меня релиз ММТ с таким же логом, Володь :oops:

Спасибо неизвестному Exploded'у, тянул с другого места потому и не нашел подробностей. Спасибо Олег, поправлю. :thanx:

_________________
http://img254.imageshack.us/img254/1015 ... 743574.gif
http://img140.imageshack.us/img140/7192 ... arlogo.jpg


Top
 Profile  
 
 
PostPosted: 02 Dec 2009 
Хиппей (support team)
User avatar
Joined: 30 Jul 2007
Posts: 114950
Lоcаtion: Киев (Kyiv, UA)
Age: 46
Name: Andrey
Володя и Експлодед, спасибо! :true:

_________________


Top
 Profile E-mail  
 
 
PostPosted: 23 Sep 2010 
.
User avatar
Joined: 25 Aug 2007
Posts: 568
Lоcаtion: Москва
Age: 107
Name: Kostolom
Image


Top
 Profile  
 
 
PostPosted: 22 Mar 2011 
Я набрал 1000 сообщений!
Joined: 12 Dec 2008
Posts: 1066
Lоcаtion: BULGARIA
Age: 41
Name: DIMITЪR
Файл 1 и 5 е corrupted, так WinRAR archiver показывает.


Top
 Profile  
 
 
PostPosted: 04 Aug 2011 
Хиппей (support team)
User avatar
Joined: 30 Jul 2007
Posts: 114950
Lоcаtion: Киев (Kyiv, UA)
Age: 46
Name: Andrey
mirror: MultiUp l Narod


log
EAC extraction logfile from 28. September 2009, 21:48 for CD
Attack / Destinies Of War

Used drive : Optiarc DVD RW AD-7200S Adapter: 2 ID: 0
Read mode : Secure with NO C2, accurate stream, disable cache
Read offset correction : 48
Overread into Lead-In and Lead-Out : No

Used output format : C:\Program Files\Exact Audio Copy\FLAC.EXE (User Defined Encoder)
32 kBit/s
Additional command line options : -6 -V %s

Other options :
Fill up missing offset samples with silence : Yes
Delete leading and trailing silent blocks : No
Native Win32 interface for Win NT & 2000


Range status and errors
Selected range
Filename F:\- Newest Rips\Attack - Destinies Of War 1993.flac.wav

Peak level 100.0 %
Range quality 99.9 %
CRC 8C637033
Copy OK

No errors occured

End of status report


cue
REM GENRE "Heavy Metal"
REM DATE 1989
PERFORMER "Attack"
TITLE "Destinies Of War"
FILE "Attack - Destinies Of War 1993.flac" WAVE
TRACK 01 AUDIO
TITLE "Wonderland"
PERFORMER "Attack"
INDEX 00 00:00:00
INDEX 01 00:00:37
TRACK 02 AUDIO
TITLE "Back To Attack"
PERFORMER "Attack"
INDEX 00 05:04:66
INDEX 01 05:05:57
TRACK 03 AUDIO
TITLE "You're Not Free"
PERFORMER "Attack"
INDEX 00 08:25:51
INDEX 01 08:26:00
TRACK 04 AUDIO
TITLE "Live Or Die"
PERFORMER "Attack"
INDEX 00 13:06:31
INDEX 01 13:06:65
TRACK 05 AUDIO
TITLE "Blind Man"
PERFORMER "Attack"
INDEX 01 18:42:05
TRACK 06 AUDIO
TITLE "The Battle's Lost"
PERFORMER "Attack"
INDEX 00 24:14:13
INDEX 01 24:14:27
TRACK 07 AUDIO
TITLE "Death Rider"
PERFORMER "Attack"
INDEX 00 28:12:03
INDEX 01 28:12:55
TRACK 08 AUDIO
TITLE "The Last Surviving Man"
PERFORMER "Attack"
INDEX 01 37:32:40
TRACK 09 AUDIO
TITLE "Destiny Of War"
PERFORMER "Attack"
INDEX 01 42:45:02
TRACK 10 AUDIO
TITLE "In This Night"
PERFORMER "Attack"
INDEX 00 47:04:33
INDEX 01 47:04:52
TRACK 11 AUDIO
TITLE "Way Out Of Hell (Bonus Track)"
PERFORMER "Attack"
INDEX 01 50:58:12
TRACK 12 AUDIO
TITLE "Wardance (Bonus Track)"
PERFORMER "Attack"
INDEX 00 54:11:71
INDEX 01 54:12:17

_________________


Top
 Profile E-mail  
 
 
PostPosted: 11 Dec 2011 
Работнечег
User avatar
Joined: 28 Aug 2007
Posts: 6035
Lоcаtion: г. Москва
Age: 30
Name: Дима
эм... так и не понял тут лось нормальный или не очень? есть диск, могу рипнуть со всеми сканами, если нужно кому.


Top
 Profile E-mail  
 
 
PostPosted: 11 Dec 2011 
Хиппей (support team)
User avatar
Joined: 30 Jul 2007
Posts: 114950
Lоcаtion: Киев (Kyiv, UA)
Age: 46
Name: Andrey
Ну я залил нормального :pardon: Издание от 93 года. Японец.
Сам еще не слушал толком =)

_________________


Top
 Profile E-mail  
 
 
PostPosted: 11 Dec 2011 
Работнечег
User avatar
Joined: 28 Aug 2007
Posts: 6035
Lоcаtion: г. Москва
Age: 30
Name: Дима
ну ok, если что свистите ;)


Top
 Profile E-mail  
 
 
PostPosted: 12 Dec 2011 
Хиппей (support team)
User avatar
Joined: 30 Jul 2007
Posts: 114950
Lоcаtion: Киев (Kyiv, UA)
Age: 46
Name: Andrey
Хахей :dance:

_________________


Top
 Profile E-mail  
 
Display posts from previous:  Sort by  
Post new topic Reply to topic  [ 11 posts ] 

All times are UTC + 3 hours


Who is online

Users browsing this forum: No registered users and 2 guests


You cannot post new topics in this forum
You cannot reply to topics in this forum
You cannot edit your posts in this forum
You cannot delete your posts in this forum
You cannot post attachments in this forum

Search for:
Яндекс.Метрика
Powered by phpBB © 2000, 2002, 2005, 2007 phpBB Group