\m/ 80's metal \m/

Информационно-аналитический форум "80 см пыли" (In Search We Trust) "У нас никто никуда не спешит"
Me For You - http://me-4u.com
It is currently 16 Oct 2019

All times are UTC + 3 hours

Spoiler
Chat - temporary registration for foreign users (please leave your application here)







Post new topic Reply to topic  [ 55 posts ]  Go to page Previous  1, 2, 3  Next
Author Message
 
PostPosted: 11 Nov 2009 
HAMMER
User avatar
Joined: 16 May 2009
Posts: 5488
Lоcаtion: Тверь
Age: 46
Name: Александр
Во во ,давай Олег поучи нас ,дай совет.Может и возродим лося :cow:


Top
 Profile E-mail  
 
 
PostPosted: 11 Nov 2009 
Прокъмитолист
User avatar
Joined: 12 Aug 2007
Posts: 6623
Lоcаtion: Санктъ-Петербуркъ
Age: 51
Name: Олекъ
ну кагбе для моих приводов только метод А оптимально подошел - и я про это и писал в своем мануале. но для другого привода это может оказаться и не так. поэтому если вылезают такие косяки в куе (последующий индекс оказывается меньше, чем предыдущий, или все нулевые индексы заклинивает на одной цифре) - скорее всего, что выбран неподходящий метод определения зазоров. надо проверить каждый из методов несколько раз на одном и том же диске - если при каждом определении зазоров значения получаются одинаковыми, значит его (метод) и надо выбрать. кроме того, оптимальный для привода метод еще обычно и самый быстрый - на других определение зазоров может идти с тормозами, а то и ваще зависнуть.

_________________
прокъметол - это музыко, от которово есть прок (ы)


Top
 Profile  
 
 
PostPosted: 11 Nov 2009 
Прокъмитолист
User avatar
Joined: 12 Aug 2007
Posts: 6623
Lоcаtion: Санктъ-Петербуркъ
Age: 51
Name: Олекъ
на крайняк, можно просто ручками стереть все нулевые индексы в куе - и не парицо :crazy:

_________________
прокъметол - это музыко, от которово есть прок (ы)


Top
 Profile  
 
 
PostPosted: 11 Nov 2009 
ыыыы
User avatar
Joined: 17 May 2009
Posts: 952
Lоcаtion: Пушкино, МО
Age: 41
Name: Дмитрий
:dash: :dash: :dash:
Я и спрашиваю- ДО ЭТОГО ВСЁ НОРМАЛЬНО БЫЛО?? я же тоже все методы проверял! :cry:

_________________
Витасу до Даймонда как Алсу до Руссоса | При переразмещении - спрашивать разрешение!!


Top
 Profile  
 
 
PostPosted: 11 Nov 2009 
HAMMER
User avatar
Joined: 16 May 2009
Posts: 5488
Lоcаtion: Тверь
Age: 46
Name: Александр
Ну я только первого лося твоего писал,так что не могу про другие ответить :pardon:


Top
 Profile E-mail  
 
 
PostPosted: 11 Nov 2009 
Прокъмитолист
User avatar
Joined: 12 Aug 2007
Posts: 6623
Lоcаtion: Санктъ-Петербуркъ
Age: 51
Name: Олекъ
iezuit wrote:
ДО ЭТОГО ВСЁ НОРМАЛЬНО БЫЛО??

ничего не могу сказать, Дим, т.к. не качал ни одного :vic:

_________________
прокъметол - это музыко, от которово есть прок (ы)


Top
 Profile  
 
 
PostPosted: 11 Nov 2009 
Хиппей (support team)
User avatar
Joined: 30 Jul 2007
Posts: 114847
Lоcаtion: Киев (Kyiv, UA)
Age: 46
Name: Andrey
spiralarch wrote:
ничего не могу сказать, Дим

Да-да, Дим, привыкай, что у нас народ здесь спустя год начинает замечать косяки (как-то кривой рип, протухшую ссылку, отсутствие сканов и пр.) :crazy:

_________________


Top
 Profile E-mail  
 
 
PostPosted: 11 Nov 2009 
ыыыы
User avatar
Joined: 17 May 2009
Posts: 952
Lоcаtion: Пушкино, МО
Age: 41
Name: Дмитрий
:true: Люблю этих парней ))
Сейчас я по схеме а и С сделаю, выложу куи. Какой прокатит- дайте знать!

_________________
Витасу до Даймонда как Алсу до Руссоса | При переразмещении - спрашивать разрешение!!


Top
 Profile  
 
 
PostPosted: 11 Nov 2009 
HAMMER
User avatar
Joined: 16 May 2009
Posts: 5488
Lоcаtion: Тверь
Age: 46
Name: Александр
Quote:
СообщениеДобавлено: 11 ноя 2009

между прочим


Top
 Profile E-mail  
 
 
PostPosted: 11 Nov 2009 
Хиппей (support team)
User avatar
Joined: 30 Jul 2007
Posts: 114847
Lоcаtion: Киев (Kyiv, UA)
Age: 46
Name: Andrey
Molot wrote:
между прочим

Да-да, куй лучше постить сюда, чем заливать на Народ.

_________________


Top
 Profile E-mail  
 
 
PostPosted: 11 Nov 2009 
Прокъмитолист
User avatar
Joined: 12 Aug 2007
Posts: 6623
Lоcаtion: Санктъ-Петербуркъ
Age: 51
Name: Олекъ
ну што, долго еще будем куями меряцо? :crazy:

_________________
прокъметол - это музыко, от которово есть прок (ы)


Top
 Profile  
 
 
PostPosted: 11 Nov 2009 
Drinker
User avatar
Joined: 12 Mar 2009
Posts: 568
Age: 48
Name: Распай Железных
хотел файл порезать :( , не получилось

"пальцем ткни"
Image


Top
 Profile  
 
 
PostPosted: 11 Nov 2009 
Хиппей (support team)
User avatar
Joined: 30 Jul 2007
Posts: 114847
Lоcаtion: Киев (Kyiv, UA)
Age: 46
Name: Andrey
Нинада операций! :dash: :cry:

_________________


Top
 Profile E-mail  
 
 
PostPosted: 11 Nov 2009 
ыыыы
User avatar
Joined: 17 May 2009
Posts: 952
Lоcаtion: Пушкино, МО
Age: 41
Name: Дмитрий
Лог схемы А
EAC extraction logfile from 11. November 2009, 22:33 for CD
ACCEPT / Hungry Years [P35X-20004]

Used drive : ASUS DRW-2014S1 Adapter: 0 ID: 0
Read mode : Secure with NO C2, accurate stream, disable cache
Read offset correction : 6
Overread into Lead-In and Lead-Out : No

Used output format : Internal WAV Routines
44.100 Hz; 16 Bit; Stereo

Other options :
Fill up missing offset samples with silence : Yes
Delete leading and trailing silent blocks : No
Installed external ASPI interface


Range status and errors
Selected range
Filename H:\Accept1\ACCEPT - Hungry Years [P35X-20004].wav

Peak level 93.2 %
Range quality 100.0 %
CRC 043BA060
Copy OK

No errors occured

End of status report

------------------------------------------------------------

EAC extraction logfile from 11. November 2009, 22:33 for CD
ACCEPT / Hungry Years [P35X-20004]

Used drive : ASUS DRW-2014S1 Adapter: 0 ID: 0
Read mode : Secure with NO C2, accurate stream, disable cache
Read offset correction : 6
Overread into Lead-In and Lead-Out : No

Used output format : Internal WAV Routines
44.100 Hz; 16 Bit; Stereo

Other options :
Fill up missing offset samples with silence : Yes
Delete leading and trailing silent blocks : No
Installed external ASPI interface


Range status and errors
Selected range
Filename H:\Accept1\ACCEPT - Hungry Years [P35X-20004].wav

Peak level 93.2 %
Range quality 100.0 %
CRC 043BA060
Copy OK

No errors occured

End of status report



Схема А
REM GENRE Metal
REM DATE 1987
REM DISCID 6F090609
REM COMMENT "ExactAudioCopy v0.95b4"
PERFORMER "ACCEPT"
TITLE "Hungry Years [P35X-20004]"
FILE "ACCEPT - Hungry Years [P35X-20004].wav" WAVE
TRACK 01 AUDIO
TITLE "Fast As A Shark"
PERFORMER "ACCEPT"
INDEX 01 00:00:00
TRACK 02 AUDIO
TITLE "Burning"
PERFORMER "ACCEPT"
INDEX 00 03:54:17
INDEX 01 03:55:27
TRACK 03 AUDIO
TITLE "Son Of A Bitch"
PERFORMER "ACCEPT"
INDEX 00 09:08:05
INDEX 01 09:09:00
TRACK 04 AUDIO
TITLE "Princess Of The Dawn"
PERFORMER "ACCEPT"
INDEX 00 12:22:45
INDEX 01 12:23:37
TRACK 05 AUDIO
TITLE "I'm A Rebel"
PERFORMER "ACCEPT"
INDEX 00 18:48:42
INDEX 01 18:51:60
TRACK 06 AUDIO
TITLE "Breaker"
PERFORMER "ACCEPT"
INDEX 00 22:37:05
INDEX 01 22:37:15
TRACK 07 AUDIO
TITLE "Restless And Wild"
PERFORMER "ACCEPT"
INDEX 00 26:11:17
INDEX 01 26:11:37
TRACK 08 AUDIO
TITLE "The King"
PERFORMER "ACCEPT"
INDEX 00 30:30:17
INDEX 01 30:30:42
TRACK 09 AUDIO
TITLE "Midnight Highway"
PERFORMER "ACCEPT"
INDEX 00 34:41:17
INDEX 01 34:42:02

_________________
Витасу до Даймонда как Алсу до Руссоса | При переразмещении - спрашивать разрешение!!


Top
 Profile  
 
 
PostPosted: 11 Nov 2009 
Прокъмитолист
User avatar
Joined: 12 Aug 2007
Posts: 6623
Lоcаtion: Санктъ-Петербуркъ
Age: 51
Name: Олекъ
схема А годицо :true:

_________________
прокъметол - это музыко, от которово есть прок (ы)


Top
 Profile  
 
 
PostPosted: 11 Nov 2009 
ыыыы
User avatar
Joined: 17 May 2009
Posts: 952
Lоcаtion: Пушкино, МО
Age: 41
Name: Дмитрий
Добьем схему С?
Еще вопрос- что с остальными делать? вроде пока никто не просил переделать...

_________________
Витасу до Даймонда как Алсу до Руссоса | При переразмещении - спрашивать разрешение!!


Top
 Profile  
 
 
PostPosted: 11 Nov 2009 
HAMMER
User avatar
Joined: 16 May 2009
Posts: 5488
Lоcаtion: Тверь
Age: 46
Name: Александр
Quote:
,,Какая на данный момент самая высокая скорость интернет-соединения?,,
Самый известный высокоскоростной интернет-доступ принадлежит 77-летней жительнице шведского городка Карлстад Зигбритт Летберг .Скорость ее подключения к Сети - 40 гигабит в секунду.Чтобы вы представили себе масштабы:это позволяет одновременно смотреть примерно 1500 видеоканалов в качестве HD DVD или скачать двухчасовой фильм в этом же формате за две секунды. Подобную щедрость организовал старушке сын Петер ,сотрудник шведского отделения компании Cisco.


Вот мне бы такую скорость я бы накачал лосей быстро,а так пока все соберешь действительно год пройдет :shok:


Top
 Profile E-mail  
 
 
PostPosted: 11 Nov 2009 
Персональный статус
User avatar
Joined: 02 Feb 2009
Posts: 236
Lоcаtion: Тульская область
Age: 53
Name: Владимир
На Европе куи тоже витиеватые, вчера пробовал в ЕАС сунуть, упирается подлюка. Пришлось убить нулевые индексы.

_________________
http://img254.imageshack.us/img254/1015 ... 743574.gif
http://img140.imageshack.us/img140/7192 ... arlogo.jpg


Top
 Profile  
 
 
PostPosted: 11 Nov 2009 
ыыыы
User avatar
Joined: 17 May 2009
Posts: 952
Lоcаtion: Пушкино, МО
Age: 41
Name: Дмитрий
Лог С
EAC extraction logfile from 11. November 2009, 22:46 for CD
ACCEPT / Hungry Years [P35X-20004]

Used drive : ASUS DRW-2014S1 Adapter: 0 ID: 0
Read mode : Secure with NO C2, accurate stream, disable cache
Read offset correction : 6
Overread into Lead-In and Lead-Out : No

Used output format : Internal WAV Routines
44.100 Hz; 16 Bit; Stereo

Other options :
Fill up missing offset samples with silence : Yes
Delete leading and trailing silent blocks : No
Installed external ASPI interface


Range status and errors
Selected range
Filename H:\Accept1\ACCEPT - Hungry Years [P35X-20004].wav

Peak level 93.2 %
Range quality 100.0 %
CRC 043BA060
Copy OK

No errors occured

End of status report

------------------------------------------------------------

EAC extraction logfile from 11. November 2009, 22:47 for CD
ACCEPT / Hungry Years [P35X-20004]

Used drive : ASUS DRW-2014S1 Adapter: 0 ID: 0
Read mode : Secure with NO C2, accurate stream, disable cache
Read offset correction : 6
Overread into Lead-In and Lead-Out : No

Used output format : Internal WAV Routines
44.100 Hz; 16 Bit; Stereo

Other options :
Fill up missing offset samples with silence : Yes
Delete leading and trailing silent blocks : No
Installed external ASPI interface


Range status and errors
Selected range
Filename H:\Accept1\ACCEPT - Hungry Years [P35X-20004].wav

Peak level 93.2 %
Range quality 100.0 %
CRC 043BA060
Copy OK

No errors occured

End of status report


Куй с...
REM GENRE Metal
REM DATE 1987
REM DISCID 6F090609
REM COMMENT "ExactAudioCopy v0.95b4"
PERFORMER "ACCEPT"
TITLE "Hungry Years [P35X-20004]"
FILE "ACCEPT - Hungry Years [P35X-20004].wav" WAVE
TRACK 01 AUDIO
TITLE "Fast As A Shark"
PERFORMER "ACCEPT"
INDEX 01 00:00:00
TRACK 02 AUDIO
TITLE "Burning"
PERFORMER "ACCEPT"
INDEX 01 03:55:27
TRACK 03 AUDIO
TITLE "Son Of A Bitch"
PERFORMER "ACCEPT"
INDEX 01 09:09:00
TRACK 04 AUDIO
TITLE "Princess Of The Dawn"
PERFORMER "ACCEPT"
INDEX 01 12:23:37
TRACK 05 AUDIO
TITLE "I'm A Rebel"
PERFORMER "ACCEPT"
INDEX 01 18:51:60
TRACK 06 AUDIO
TITLE "Breaker"
PERFORMER "ACCEPT"
INDEX 01 22:37:15
TRACK 07 AUDIO
TITLE "Restless And Wild"
PERFORMER "ACCEPT"
INDEX 01 26:11:37
TRACK 08 AUDIO
TITLE "The King"
PERFORMER "ACCEPT"
INDEX 01 30:30:42
TRACK 09 AUDIO
TITLE "Midnight Highway"
PERFORMER "ACCEPT"
INDEX 01 34:42:02

_________________
Витасу до Даймонда как Алсу до Руссоса | При переразмещении - спрашивать разрешение!!


Top
 Profile  
 
 
PostPosted: 11 Nov 2009 
ыыыы
User avatar
Joined: 17 May 2009
Posts: 952
Lоcаtion: Пушкино, МО
Age: 41
Name: Дмитрий
ООооо!! тема нашла широкий отклик!
Какую схему-то ставить, Олег?? :vic:

_________________
Витасу до Даймонда как Алсу до Руссоса | При переразмещении - спрашивать разрешение!!


Top
 Profile  
 
Display posts from previous:  Sort by  
Post new topic Reply to topic  [ 55 posts ]  Go to page Previous  1, 2, 3  Next

All times are UTC + 3 hours


Who is online

Users browsing this forum: No registered users and 1 guest


You cannot post new topics in this forum
You cannot reply to topics in this forum
You cannot edit your posts in this forum
You cannot delete your posts in this forum
You cannot post attachments in this forum

Search for:
Яндекс.Метрика
Powered by phpBB © 2000, 2002, 2005, 2007 phpBB Group