\m/ 80's metal \m/

Информационно-аналитический форум "80 см пыли" (In Search We Trust) "У нас никто никуда не спешит"
Железнодорожная биржа - RailAgent
It is currently 19 Aug 2018

All times are UTC + 3 hours

Spoiler
Chat - temporary registration for foreign users (please leave your application here)







Post new topic Reply to topic  [ 55 posts ]  Go to page 1, 2, 3  Next
Author Message
 
PostPosted: 10 Nov 2009 
ыыыы
User avatar
Joined: 17 May 2009
Posts: 952
Lоcаtion: Пушкино, МО
Age: 39
Name: Дмитрий
Accept 1987 Hungry Years Japan CD 1st Press


Image


Recording line-up:

Сборник!! Там все свои!!

Songs:

1. Fast As A Shark 03:54
2. Burning 05:12
3. Son Of A Bitch 03:13
4. Princess Of The Dawn 06:25
5. I'm A Rebel 03:44
6. Breaker 3:34
7. Restless And Wild 04:16
8. The King 04:10
9. Midnight Highway 03:49
====================
Playing time: 38:07

Released: Japan 1987 POLYSTAR/METRONOME
Cat #: P35X-20004
Matrix: P35X20004 B73141

Narod
MEGAUPLOAD

Log
EAC extraction logfile from 9. November 2009, 22:26 for CD
ACCEPT / Hungry Years [P35X-20004]

Used drive : ASUS DRW-2014S1 Adapter: 0 ID: 0
Read mode : Secure with NO C2, accurate stream, disable cache
Read offset correction : 6
Overread into Lead-In and Lead-Out : No

Used output format : Internal WAV Routines
44.100 Hz; 16 Bit; Stereo

Other options :
Fill up missing offset samples with silence : Yes
Delete leading and trailing silent blocks : No
Installed external ASPI interface


Range status and errors
Selected range
Filename Y:\Музыка\Accept\1987 Hungry Years Japan\ACCEPT - Hungry Years [P35X-20004].wav

Peak level 93.2 %
Range quality 100.0 %
CRC 043BA060
Copy OK

No errors occured

End of status report

------------------------------------------------------------

EAC extraction logfile from 9. November 2009, 22:26 for CD
ACCEPT / Hungry Years [P35X-20004]

Used drive : ASUS DRW-2014S1 Adapter: 0 ID: 0
Read mode : Secure with NO C2, accurate stream, disable cache
Read offset correction : 6
Overread into Lead-In and Lead-Out : No

Used output format : Internal WAV Routines
44.100 Hz; 16 Bit; Stereo

Other options :
Fill up missing offset samples with silence : Yes
Delete leading and trailing silent blocks : No
Installed external ASPI interface


Range status and errors
Selected range
Filename Y:\Музыка\Accept\1987 Hungry Years Japan\ACCEPT - Hungry Years [P35X-20004].wav

Peak level 93.2 %
Range quality 100.0 %
CRC 043BA060
Copy OK

No errors occured

End of status report


Куй
[REM GENRE Metal
REM DATE 1987
REM DISCID 6F090609
REM COMMENT "ExactAudioCopy v0.95b4"
PERFORMER "ACCEPT"
TITLE "Hungry Years [P35X-20004]"
FILE "ACCEPT - Hungry Years [P35X-20004].flac" WAVE
TRACK 01 AUDIO
TITLE "Fast As A Shark"
PERFORMER "ACCEPT"
INDEX 01 00:00:00
TRACK 02 AUDIO
TITLE "Burning"
PERFORMER "ACCEPT"
INDEX 01 03:55:27
TRACK 03 AUDIO
TITLE "Son Of A Bitch"
PERFORMER "ACCEPT"
INDEX 00 03:55:27
INDEX 01 09:09:00
TRACK 04 AUDIO
TITLE "Princess Of The Dawn"
PERFORMER "ACCEPT"
INDEX 00 03:55:27
INDEX 01 12:23:37
TRACK 05 AUDIO
TITLE "I'm A Rebel"
PERFORMER "ACCEPT"
INDEX 00 03:55:27
INDEX 01 18:51:60
TRACK 06 AUDIO
TITLE "Breaker"
PERFORMER "ACCEPT"
INDEX 00 03:55:27
INDEX 01 22:37:15
TRACK 07 AUDIO
TITLE "Restless And Wild"
PERFORMER "ACCEPT"
INDEX 00 03:55:27
INDEX 01 26:11:37
TRACK 08 AUDIO
TITLE "The King"
PERFORMER "ACCEPT"
INDEX 00 03:55:27
INDEX 01 30:30:42
TRACK 09 AUDIO
TITLE "Midnight Highway"
PERFORMER "ACCEPT"
INDEX 00 03:55:27
INDEX 01 34:42:02

_________________
Витасу до Даймонда как Алсу до Руссоса | При переразмещении - спрашивать разрешение!!


Last edited by iezuit on 11 Nov 2009, edited 1 time in total.

Top
 Profile  
 
 
PostPosted: 10 Nov 2009 
ыыыы
User avatar
Joined: 17 May 2009
Posts: 952
Lоcаtion: Пушкино, МО
Age: 39
Name: Дмитрий
З.Ы. Цвет обложки реально темнее, чем у европы.

_________________
Витасу до Даймонда как Алсу до Руссоса | При переразмещении - спрашивать разрешение!!


Top
 Profile  
 
 
PostPosted: 11 Nov 2009 
HAMMER
User avatar
Joined: 16 May 2009
Posts: 5348
Lоcаtion: Тверь
Age: 45
Name: Александр
:thanx: :true:


Top
 Profile E-mail  
 
 
PostPosted: 11 Nov 2009 
HAMMER
User avatar
Joined: 16 May 2009
Posts: 5348
Lоcаtion: Тверь
Age: 45
Name: Александр
Image

Я тут не особо рублю,подскажите,чего то куе ошибку выдает :oops:


Top
 Profile E-mail  
 
 
PostPosted: 11 Nov 2009 
HAMMER
User avatar
Joined: 16 May 2009
Posts: 5348
Lоcаtion: Тверь
Age: 45
Name: Александр
Image
Вот чего то со временем звучания вроде :vic:


Top
 Profile E-mail  
 
 
PostPosted: 11 Nov 2009 
ыыыы
User avatar
Joined: 17 May 2009
Posts: 952
Lоcаtion: Пушкино, МО
Age: 39
Name: Дмитрий
а может надо исправить в самом начале .wav на .flac ? На остальных куях ошибки есть?
делал всё по мануалу..если что- переделаю :fingal:

_________________
Витасу до Даймонда как Алсу до Руссоса | При переразмещении - спрашивать разрешение!!


Top
 Profile  
 
 
PostPosted: 11 Nov 2009 
HAMMER
User avatar
Joined: 16 May 2009
Posts: 5348
Lоcаtion: Тверь
Age: 45
Name: Александр
Вот что то мне подсказывает ,что 3 песня заканчивается в 09:09:00 ,а 4 начинается в 07:24:69 ,так ведь не может быть.
Quote:
TRACK 03 AUDIO
TITLE "Son Of A Bitch"
PERFORMER "ACCEPT"
INDEX 00 04:10:32
INDEX 01 09:09:00
TRACK 04 AUDIO
TITLE "Princess Of The Dawn"
PERFORMER "ACCEPT"
INDEX 00 07:24:69
INDEX 01 12:23:37


Top
 Profile E-mail  
 
 
PostPosted: 11 Nov 2009 
HAMMER
User avatar
Joined: 16 May 2009
Posts: 5348
Lоcаtion: Тверь
Age: 45
Name: Александр
Я делал так флак декомпресснул в wav ,в куе изменил flac на wav и потом уже стал пробовать в EACe все это дело пробовать :vic:


Top
 Profile E-mail  
 
 
PostPosted: 11 Nov 2009 
ыыыы
User avatar
Joined: 17 May 2009
Posts: 952
Lоcаtion: Пушкино, МО
Age: 39
Name: Дмитрий
:oops: я сам не шарю- мне проще переделать :vic: часика через 2,5 выложу

_________________
Витасу до Даймонда как Алсу до Руссоса | При переразмещении - спрашивать разрешение!!


Top
 Profile  
 
 
PostPosted: 11 Nov 2009 
HAMMER
User avatar
Joined: 16 May 2009
Posts: 5348
Lоcаtion: Тверь
Age: 45
Name: Александр
Хорошо :thanx: Хотя может мы и тупим где ,я вот тоже не шарю :crazy:


Top
 Profile E-mail  
 
 
PostPosted: 11 Nov 2009 
ыыыы
User avatar
Joined: 17 May 2009
Posts: 952
Lоcаtion: Пушкино, МО
Age: 39
Name: Дмитрий
Переделал Куй.какой-то он совсем другой..
http://narod.ru/disk/14978906000/ACCEPT ... D.cue.html

_________________
Витасу до Даймонда как Алсу до Руссоса | При переразмещении - спрашивать разрешение!!


Top
 Profile  
 
 
PostPosted: 11 Nov 2009 
Хиппей (support team)
User avatar
Joined: 30 Jul 2007
Posts: 105679
Lоcаtion: Киев (Kyiv, UA)
Age: 45
Name: Andrey
iezuit wrote:
Переделал Куй.какой-то он совсем другой..

Ага... :scratch:
Quote:
Файл удален с сервиса

_________________


Top
 Profile E-mail  
 
 
PostPosted: 11 Nov 2009 
ыыыы
User avatar
Joined: 17 May 2009
Posts: 952
Lоcаtion: Пушкино, МО
Age: 39
Name: Дмитрий
Обнови страницу- я его перезаливал :fingal:
Тем более- можно же и с новостного поста слить- я ж там тоже обновил :nunu:

_________________
Витасу до Даймонда как Алсу до Руссоса | При переразмещении - спрашивать разрешение!!


Top
 Profile  
 
 
PostPosted: 11 Nov 2009 
HAMMER
User avatar
Joined: 16 May 2009
Posts: 5348
Lоcаtion: Тверь
Age: 45
Name: Александр
Хм! Все равно ошибку выдает :vic: Не пойму почему.Кто нибудь качал этот лось и записывал? Эй где вы главные лосеводы,отзовитесь. Чего я не так делаю?
Блин мы тут уже нафлудили до фига пока с куем разбираемся. :fingal:


Top
 Profile E-mail  
 
 
PostPosted: 11 Nov 2009 
ыыыы
User avatar
Joined: 17 May 2009
Posts: 952
Lоcаtion: Пушкино, МО
Age: 39
Name: Дмитрий
Если не получится- Iso образ залью

_________________
Витасу до Даймонда как Алсу до Руссоса | При переразмещении - спрашивать разрешение!!


Top
 Profile  
 
 
PostPosted: 11 Nov 2009 
HAMMER
User avatar
Joined: 16 May 2009
Posts: 5348
Lоcаtion: Тверь
Age: 45
Name: Александр
Может че в настройках EACа ,что он разные куи сделал? Или лося заново забабахай :oops:


Top
 Profile E-mail  
 
 
PostPosted: 11 Nov 2009 
ыыыы
User avatar
Joined: 17 May 2009
Posts: 952
Lоcаtion: Пушкино, МО
Age: 39
Name: Дмитрий
ага, разные. я потому и спрашивал- предыдущие лоси тоже с ошибками? а лось сделан, ша залью

_________________
Витасу до Даймонда как Алсу до Руссоса | При переразмещении - спрашивать разрешение!!


Top
 Profile  
 
 
PostPosted: 11 Nov 2009 
ыыыы
User avatar
Joined: 17 May 2009
Posts: 952
Lоcаtion: Пушкино, МО
Age: 39
Name: Дмитрий
http://narod.ru/disk/14981020000/Accept ... n.rar.html

_________________
Витасу до Даймонда как Алсу до Руссоса | При переразмещении - спрашивать разрешение!!


Top
 Profile  
 
 
PostPosted: 11 Nov 2009 
Прокъмитолист
User avatar
Joined: 12 Aug 2007
Posts: 6447
Lоcаtion: Санктъ-Петербуркъ
Age: 50
Name: Олекъ
ага, кривой куй получился (с левой резьбой :crazy: ). не надо лося перезаливать - надо лишь куй переделать. Дим, попробуй поэкспериментировать с методом определения зазоров (A,B,C).

_________________
прокъметол - это музыко, от которово есть прок (ы)


Top
 Profile  
 
 
PostPosted: 11 Nov 2009 
ыыыы
User avatar
Joined: 17 May 2009
Posts: 952
Lоcаtion: Пушкино, МО
Age: 39
Name: Дмитрий
Попробую :dash: :crazy: А из-за чего это может быть? я же ничего не менял??
Щас Onslaught 89 будет- надо там будет посмотреть ..

_________________
Витасу до Даймонда как Алсу до Руссоса | При переразмещении - спрашивать разрешение!!


Top
 Profile  
 
Display posts from previous:  Sort by  
Post new topic Reply to topic  [ 55 posts ]  Go to page 1, 2, 3  Next

All times are UTC + 3 hours


Who is online

Users browsing this forum: No registered users and 2 guests


You cannot post new topics in this forum
You cannot reply to topics in this forum
You cannot edit your posts in this forum
You cannot delete your posts in this forum
You cannot post attachments in this forum

Search for:
Яндекс.Метрика
Powered by phpBB © 2000, 2002, 2005, 2007 phpBB Group