\m/ 80's metal \m/

Информационно-аналитический форум "80 см пыли" (In Search We Trust) "У нас никто никуда не спешит"
Me For You - http://me-4u.com
It is currently 20 Oct 2018

All times are UTC + 3 hours

Spoiler
Chat - temporary registration for foreign users (please leave your application here)







Post new topic Reply to topic  [ 31 posts ]  Go to page Previous  1, 2
Author Message
 
PostPosted: 11 Nov 2009 
ыыыы
User avatar
Joined: 17 May 2009
Posts: 952
Lоcаtion: Пушкино, МО
Age: 40
Name: Дмитрий
да по теме никто не читает.В лучшем случае всё превращается в бодягу

_________________
Витасу до Даймонда как Алсу до Руссоса | При переразмещении - спрашивать разрешение!!


Top
 Profile  
 
 
PostPosted: 11 Nov 2009 
Хиппей (support team)
User avatar
Joined: 30 Jul 2007
Posts: 107060
Lоcаtion: Киев (Kyiv, UA)
Age: 45
Name: Andrey
Хм, не понял, о чём ты? :vic:

_________________


Top
 Profile E-mail  
 
 
PostPosted: 11 Nov 2009 
труъ антисионист
User avatar
Joined: 01 Aug 2007
Posts: 4541
Lоcаtion: Откуда и большинство из нас
Age: 37
Name: Дядя Вова
У меня есть какой-то концерт в Попенгагене, как раз из раннего периода и Вакен, год 2000, если мне память не изменяет.

_________________
Image
Image


Top
 Profile  
 
 
PostPosted: 11 Nov 2009 
ыыыы
User avatar
Joined: 17 May 2009
Posts: 952
Lоcаtion: Пушкино, МО
Age: 40
Name: Дмитрий
Glot wrote:
У меня есть какой-то концерт в Попенгагене

Хорошо бы его!! :true:

_________________
Витасу до Даймонда как Алсу до Руссоса | При переразмещении - спрашивать разрешение!!


Top
 Profile  
 
 
PostPosted: 11 Nov 2009 
труъ антисионист
User avatar
Joined: 01 Aug 2007
Posts: 4541
Lоcаtion: Откуда и большинство из нас
Age: 37
Name: Дядя Вова
Как диск найду, то всё оформлю!

_________________
Image
Image


Top
 Profile  
 
 
PostPosted: 11 Nov 2009 
ыыыы
User avatar
Joined: 17 May 2009
Posts: 952
Lоcаtion: Пушкино, МО
Age: 40
Name: Дмитрий
Воффка! ты- тру!! :true:

_________________
Витасу до Даймонда как Алсу до Руссоса | При переразмещении - спрашивать разрешение!!


Top
 Profile  
 
 
PostPosted: 24 Nov 2009 
5cm
User avatar
Joined: 01 Mar 2009
Posts: 61
Name: Сергей
БОЛЬШОЕ СПАСИБО ! если возможно,сделай сканы.


Top
 Profile  
 
 
PostPosted: 19 Mar 2010 
Thrasher
User avatar
Joined: 07 Oct 2007
Posts: 2756
Lоcаtion: Russia, Moscow
Age: 34
Name: Drunk & Evil
Спасибо!

_________________
ВОДКА, БАБЫ И БЛЮЗ / 40° till death... :bodun:
One time we saw some hookers, but when we got closer, we realised it was Mötley Crüe. ©


Top
 Profile  
 
 
PostPosted: 19 Mar 2010 
Thrasher
User avatar
Joined: 07 Oct 2007
Posts: 2756
Lоcаtion: Russia, Moscow
Age: 34
Name: Drunk & Evil
а можно куй вылечить, а то у миня чото не работает :crazy: :crazy: :crazy:

_________________
ВОДКА, БАБЫ И БЛЮЗ / 40° till death... :bodun:
One time we saw some hookers, but when we got closer, we realised it was Mötley Crüe. ©


Top
 Profile  
 
 
PostPosted: 20 Mar 2010 
ыыыы
User avatar
Joined: 17 May 2009
Posts: 952
Lоcаtion: Пушкино, МО
Age: 40
Name: Дмитрий
"Куй"
REM GENRE "Thrash Metal"
REM DATE 1990
REM DISCID 6C099809
REM COMMENT "ExactAudioCopy v0.95b4"
CATALOG 0000000000000
PERFORMER "Artillery"
TITLE "By Inheritance [APCY-8015]"
FILE "Artillery - By Inheritance [APCY-8015].flac" WAVE
TRACK 01 AUDIO
TITLE "7:00 From Tashkent"
PERFORMER "Artillery"
INDEX 00 00:00:00
INDEX 01 00:00:37
TRACK 02 AUDIO
TITLE "Beneath The Clay"
PERFORMER "Artillery"
INDEX 01 00:54:62
TRACK 03 AUDIO
TITLE "By Inheritance"
PERFORMER "Artillery"
INDEX 00 00:54:62
INDEX 01 05:43:32
TRACK 04 AUDIO
TITLE "Bomb Food"
PERFORMER "Artillery"
INDEX 00 00:54:62
INDEX 01 11:27:00
TRACK 05 AUDIO
TITLE "Don't Believe"
PERFORMER "Artillery"
INDEX 00 00:54:62
INDEX 01 17:10:30
TRACK 06 AUDIO
TITLE "Life In Bondage"
PERFORMER "Artillery"
INDEX 00 00:54:62
INDEX 01 21:50:62
TRACK 07 AUDIO
TITLE "Equal At First"
PERFORMER "Artillery"
INDEX 00 00:54:62
INDEX 01 27:16:50
TRACK 08 AUDIO
TITLE "Razamanaz"
PERFORMER "Artillery"
INDEX 00 00:58:67
INDEX 01 31:40:67
TRACK 09 AUDIO
TITLE "Back In The Trash"
PERFORMER "Artillery"
INDEX 00 04:12:65
INDEX 01 34:54:65

_________________
Витасу до Даймонда как Алсу до Руссоса | При переразмещении - спрашивать разрешение!!


Top
 Profile  
 
 
PostPosted: 20 Mar 2010 
Thrasher
User avatar
Joined: 07 Oct 2007
Posts: 2756
Lоcаtion: Russia, Moscow
Age: 34
Name: Drunk & Evil
это вот вроде сломаный :umnik:

_________________
ВОДКА, БАБЫ И БЛЮЗ / 40° till death... :bodun:
One time we saw some hookers, but when we got closer, we realised it was Mötley Crüe. ©


Top
 Profile  
 
Display posts from previous:  Sort by  
Post new topic Reply to topic  [ 31 posts ]  Go to page Previous  1, 2

All times are UTC + 3 hours


Who is online

Users browsing this forum: No registered users and 5 guests


You cannot post new topics in this forum
You cannot reply to topics in this forum
You cannot edit your posts in this forum
You cannot delete your posts in this forum
You cannot post attachments in this forum

Search for:
Яндекс.Метрика
cron
Powered by phpBB © 2000, 2002, 2005, 2007 phpBB Group