\m/ 80's metal \m/

Информационно-аналитический форум "80 см пыли" (In Search We Trust) "У нас никто никуда не спешит"
Me For You - http://me-4u.com
It is currently 17 Nov 2019

All times are UTC + 3 hours

Spoiler
Chat - temporary registration for foreign users (please leave your application here)







Post new topic Reply to topic  [ 13 posts ] 
Author Message
 
PostPosted: 28 Oct 2009 
Хиппей (support team)
User avatar
Joined: 30 Jul 2007
Posts: 115552
Lоcаtion: Киев (Kyiv, UA)
Age: 46
Name: Andrey
Angelo Perlepes' Mystery - 2004 - Destiny [flac]

    Image

Genre: Neoclassical Metal
Location: Greece
Format: flac+cue+log+scans
Size: 405 Mb


Line-up:
Dimitris Sirgiannis - vocals
Angelo Perlepes - guitars
Takis Avramopoulos - bass
John Christopoulos - drums

    1. Show No Mercy - 05:15
    2. I Will Fly - 04:03
    3. Treason - 04:34
    4. Desperate Heart - 07:08
    5. The Quest - 06:33
    6. Weird (instrumental) - 09:33
    7. Destiny - 05:56
    8. My Dark Lord - 05:07
    9. Till the End of Time - 05:00

    TPT: 53:28

Mega
Narod

Released by Exploded from MMT

log
EAC extraction logfile from 11. January 2009, 17:15 for CD
Angelo Perlepes' Mystery / Destiny

Used drive : HL-DT-STDVDRAM GH20NS10 Adapter: 0 ID: 1
Read mode : Secure with NO C2, accurate stream, disable cache
Read offset correction : 667
Overread into Lead-In and Lead-Out : No

Used output format : C:\Program Files\Exact Audio Copy\FLAC.EXE (User Defined Encoder)
32 kBit/s
Additional command line options : -6 -V %s

Other options :
Fill up missing offset samples with silence : Yes
Delete leading and trailing silent blocks : No
Native Win32 interface for Win NT & 2000


Range status and errors
Selected range
Filename M:\- EAC Temp\Angelo Perlepes' Mystery - Destiny.flac.wav

Peak level 100.0 %
Range quality 100.0 %
CRC 0E041848
Copy OK

No errors occured

End of status report


cue
PERFORMER "Angelo Perlepes' Mystery"
TITLE "Destiny"
FILE "Angelo Perlepes' Mystery - Destiny.flac" WAVE
TRACK 01 AUDIO
TITLE "Show No Mercy"
PERFORMER "Angelo Perlepes' Mystery"
INDEX 01 00:00:00
TRACK 02 AUDIO
TITLE "I will Fly"
PERFORMER "Angelo Perlepes' Mystery"
INDEX 01 05:15:10
TRACK 03 AUDIO
TITLE "Treason"
PERFORMER "Angelo Perlepes' Mystery"
INDEX 01 09:18:34
TRACK 04 AUDIO
TITLE "Desperate Heart"
PERFORMER "Angelo Perlepes' Mystery"
INDEX 01 13:52:45
TRACK 05 AUDIO
TITLE "The Quest"
PERFORMER "Angelo Perlepes' Mystery"
INDEX 01 21:01:26
TRACK 06 AUDIO
TITLE "Weird"
PERFORMER "Angelo Perlepes' Mystery"
INDEX 01 27:35:20
TRACK 07 AUDIO
TITLE "Destiny"
PERFORMER "Angelo Perlepes' Mystery"
INDEX 01 37:08:61
TRACK 08 AUDIO
TITLE "My Dark Lord"
PERFORMER "Angelo Perlepes' Mystery"
INDEX 01 43:05:13
TRACK 09 AUDIO
TITLE "Till The End Of Time"
PERFORMER "Angelo Perlepes' Mystery"
INDEX 01 48:12:43

_________________


Top
 Profile E-mail  
 
 
PostPosted: 29 Oct 2009 
Работнечег
User avatar
Joined: 28 Aug 2007
Posts: 6061
Lоcаtion: г. Москва
Age: 30
Name: Дима
Ой, а я и недеялся так быстро! Пасибо Андрюх!


Top
 Profile E-mail  
 
 
PostPosted: 29 Oct 2009 
Хиппей (support team)
User avatar
Joined: 30 Jul 2007
Posts: 115552
Lоcаtion: Киев (Kyiv, UA)
Age: 46
Name: Andrey
Гы, он у меня месяц на винте пылился :oops:

_________________


Top
 Profile E-mail  
 
 
PostPosted: 29 Oct 2009 
хард н хэвщик (support team)
User avatar
Joined: 02 Jun 2008
Posts: 16881
Lоcаtion: Н.Новгород
Age: 32
Name: Артем
:true:


Top
 Profile  
 
 
PostPosted: 29 Oct 2009 
Персональный статус
User avatar
Joined: 02 Feb 2009
Posts: 236
Lоcаtion: Тульская область
Age: 53
Name: Владимир
Оказывается тоже давно скачалось, а я и забыл про это, Спасибо что напомнил! :true:
Только Андрей не понял, при чем тут реиссу, Mystery - 1991 и Destiny - 2004 это разные альбомы, с разным трек листом.

Angelo Perlepes' Mystery) - Destiny
1. Show no mercy 05:15
2. I will fly 04:03
3. Treason 04:34
4. Desperate Heart 07:08
5. The quest 06:33
6. Weird (instrumental) 09:33
7. Destiny 05:56
8. My dark lord 05:07
9. Till the end of time 05:00

_________________
http://img254.imageshack.us/img254/1015 ... 743574.gif
http://img140.imageshack.us/img140/7192 ... arlogo.jpg


Top
 Profile  
 
 
PostPosted: 29 Oct 2009 
Прокъмитолист
User avatar
Joined: 12 Aug 2007
Posts: 6636
Lоcаtion: Санктъ-Петербуркъ
Age: 52
Name: Олекъ
пока никто не исправил:
Quote:
Angelo Perlepes' Mystery - 2004 - Destiny (reis 2004) [flac]
:true:

_________________
прокъметол - это музыко, от которово есть прок (ы)


Top
 Profile  
 
 
PostPosted: 29 Oct 2009 
Персональный статус
User avatar
Joined: 02 Feb 2009
Posts: 236
Lоcаtion: Тульская область
Age: 53
Name: Владимир
А самое то интересное я проглядел. :dash:

_________________
http://img254.imageshack.us/img254/1015 ... 743574.gif
http://img140.imageshack.us/img140/7192 ... arlogo.jpg


Top
 Profile  
 
 
PostPosted: 30 Oct 2009 
Хиппей (support team)
User avatar
Joined: 30 Jul 2007
Posts: 115552
Lоcаtion: Киев (Kyiv, UA)
Age: 46
Name: Andrey
crimson22 wrote:
Mystery - 1991 и Destiny - 2004 это разные альбомы, с разным трек листом

Опаньке... Спасибо, исправлю :thanx:

_________________


Top
 Profile E-mail  
 
 
PostPosted: 31 Oct 2009 
Power Metal Maniac
User avatar
Joined: 09 Aug 2008
Posts: 6959
Lоcаtion: Москва
Age: 41
Name: Егор
:thanx:

_________________
Long Live Metal!


Top
 Profile  
 
 
PostPosted: 31 Oct 2009 
Хиппей (support team)
User avatar
Joined: 30 Jul 2007
Posts: 115552
Lоcаtion: Киев (Kyiv, UA)
Age: 46
Name: Andrey
Только что сам прослушал релиз этот. Дык, шикарнейший альбом :true:
Да, казалось бы, неоклассик мэтал, что с него взять? Ан нет, альбом очень грамотно построен - ничего лишнего, занудного или надоедливого. Всё в меру :meloman:

_________________


Top
 Profile E-mail  
 
 
PostPosted: 31 Oct 2009 
хард н хэвщик (support team)
User avatar
Joined: 02 Jun 2008
Posts: 16881
Lоcаtion: Н.Новгород
Age: 32
Name: Артем
Scatterbrain wrote:
Angelo Perlepes' Mystery - 1991 - Destiny [flac]

эта надпись в первом сообщении.
так какого года альбом - 1991 или 2004 ?


Top
 Profile  
 
 
PostPosted: 31 Oct 2009 
Power Metal Maniac
User avatar
Joined: 09 Aug 2008
Posts: 6959
Lоcаtion: Москва
Age: 41
Name: Егор
McKagan
это 2004

_________________
Long Live Metal!


Top
 Profile  
 
 
PostPosted: 31 Oct 2009 
Хиппей (support team)
User avatar
Joined: 30 Jul 2007
Posts: 115552
Lоcаtion: Киев (Kyiv, UA)
Age: 46
Name: Andrey
McKagan wrote:
надпись в первом сообщении

Эээ, забыл внутри сменить. Спасибо =))

_________________


Top
 Profile E-mail  
 
Display posts from previous:  Sort by  
Post new topic Reply to topic  [ 13 posts ] 

All times are UTC + 3 hours


Who is online

Users browsing this forum: No registered users and 1 guest


You cannot post new topics in this forum
You cannot reply to topics in this forum
You cannot edit your posts in this forum
You cannot delete your posts in this forum
You cannot post attachments in this forum

Search for:
Яндекс.Метрика
Powered by phpBB © 2000, 2002, 2005, 2007 phpBB Group