\m/ 80's metal \m/

Информационно-аналитический форум "80 см пыли" (In Search We Trust) "У нас никто никуда не спешит"
Me For You - http://me-4u.com
It is currently 17 Oct 2019

All times are UTC + 3 hours

Spoiler
Chat - temporary registration for foreign users (please leave your application here)







Post new topic Reply to topic  [ 5 posts ] 
Author Message
 
PostPosted: 25 Oct 2009 
Old Time Rock`n`Roll
User avatar
Joined: 23 Jun 2008
Posts: 3490
Warnings: 1
Lоcаtion: г.Ульяновск
Age: 41
Name: Константин
Autograph – Sign In Please (1984)

Image

Year:1984
Style: Hard Rock
Country: USA
Format: APE + log + cue + scans & mp3-320
Size: 284 Mb/ 96 Mb

Tracklist
01. Send Her To Me (3:54)
02. Turn Up The Radio (4:58)
03. Night Teen And Non-Stop (4:15)
04. Cloud 10 (3:33)
05. Deep End (4:14)
06. My Girlfriend's Boyfriend Isn't Me (3:31)
07. Thrill Of Love (3:56)
08. Friday (4:10)
09. In The Night (3:53)
10. All I'm Gonna Take (5:41)

Image

Line-Up
Keni Richards - Drums
Randy Rand - Bass, Vocals
Steve Lynch - Guitar
Steve Plunkett - Lead Vocals, Guitar
Steven Isham - Keyboards, Vocals

Album Credits:
Producer: Neil Kernon
Engineered: Neil Kernon/Eddie DeLena
Mixing: Neil Kernon/Eddie DeLena
Mastered: Bernie Grundman

Album Chart Position:
USA # 29

Charting Singles:
Turn Up The Radio USA # 29

TPT – 42:20

Spectres

Image

Log
Exact Audio Copy V0.99 prebeta 4 from 23. January 2008

Отчёт EAC об извлечении, выполненном 13. мая 2009, 10:07

AUTOGRAPH / Sign In Please

Дисковод: MATSHITADVD-RAM UJ-861H Adapter: 0 ID: 0

Режим чтения : Достоверность
Использование точного потока : Да
Отключение кэша аудио : Да
Использование указателей C2 : Нет

Коррекция смещения при чтении : 102
Способность читать области Lead-in и Lead-out : Нет
Заполнение пропущенных сэмплов тишиной : Да
Удаление блоков с тишиной в начале и конце : Нет
При вычислениях CRC использовались нулевые сэмплы : Да
Интерфейс : Встроенный Win32-интерфейс для Win NT/2000

Выходной формат : Внутренние WAV-операции
Формат сэмплов : 44.100 Гц; 16 бит; стерео


TOC извлечённого CD

Трек | Старт | Длительность | Начальный сектор | Конечный сектор
---------------------------------------------------------------------
1 | 0:00.00 | 3:58.50 | 0 | 17899
2 | 3:58.50 | 4:39.30 | 17900 | 38854
3 | 8:38.05 | 4:20.05 | 38855 | 58359
4 | 12:58.10 | 3:36.62 | 58360 | 74621
5 | 16:34.72 | 4:18.28 | 74622 | 93999
6 | 20:53.25 | 3:32.30 | 94000 | 109929
7 | 24:25.55 | 3:59.60 | 109930 | 127914
8 | 28:25.40 | 4:13.42 | 127915 | 146931
9 | 32:39.07 | 3:58.10 | 146932 | 164791
10 | 36:37.17 | 5:42.13 | 164792 | 190454


Характеристики диапазона извлечения и сообщения об ошибках

Выбранный диапазон

Имя файла D:\Исходные торренты\AUTOGRAPH - Sign In Please.wav

Пиковый уровень 99.9 %
Качество диапазона 100.0 %
CRC копии 8CFE6F18
Копирование... OK

Ошибок не произошло


AccurateRip: сводка

Трек 1 точность не определена (достоверность 5) [6E90F114], AccurateRip вернул [9D02ECAF]
Трек 2 точность не определена (достоверность 6) [D70EB807], AccurateRip вернул [275B99E5]
Трек 3 точность не определена (достоверность 5) [FBC8EA10], AccurateRip вернул [98E52E7B]
Трек 4 точность не определена (достоверность 5) [FD82758B], AccurateRip вернул [C83D4324]
Трек 5 точность не определена (достоверность 5) [2C39DEB6], AccurateRip вернул [7C2F8AE9]
Трек 6 точность не определена (достоверность 5) [62786AF6], AccurateRip вернул [36F05049]
Трек 7 точность не определена (достоверность 5) [8E174BF2], AccurateRip вернул [4B8F67BD]
Трек 8 точность не определена (достоверность 5) [7437816A], AccurateRip вернул [0CE5B438]
Трек 9 точность не определена (достоверность 5) [9633B14F], AccurateRip вернул [AE7F43F1]
Трек 10 точность не определена (достоверность 5) [9F4B01B4], AccurateRip вернул [3D237A34]

Ни один трек не прошёл проверки на точность
В вашей базе может быть иной вариант штамповки диска

Конец отчёта


Cue
REM GENRE "Hard Rock"
REM DATE 1984
REM DISCID 8A09EB0A
REM COMMENT "ExactAudioCopy v0.99pb4"
PERFORMER "AUTOGRAPH"
TITLE "Sign In Please"
FILE "AUTOGRAPH - Sign In Please.wav" WAVE
TRACK 01 AUDIO
TITLE "Send Her To Me"
PERFORMER "AUTOGRAPH"
INDEX 01 00:00:00
TRACK 02 AUDIO
TITLE "Turn Up The Radio"
PERFORMER "AUTOGRAPH"
INDEX 01 03:58:50
TRACK 03 AUDIO
TITLE "Night Teen & Non-Stop"
PERFORMER "AUTOGRAPH"
INDEX 01 08:38:05
TRACK 04 AUDIO
TITLE "Cloud 10"
PERFORMER "AUTOGRAPH"
INDEX 01 12:58:10
TRACK 05 AUDIO
TITLE "Deep End"
PERFORMER "AUTOGRAPH"
INDEX 01 16:34:72
TRACK 06 AUDIO
TITLE "My Girlfriend's Boyfriend Isn't Me"
PERFORMER "AUTOGRAPH"
INDEX 01 20:53:25
TRACK 07 AUDIO
TITLE "Thrill Of Love"
PERFORMER "AUTOGRAPH"
INDEX 01 24:25:55
TRACK 08 AUDIO
TITLE "Friday"
PERFORMER "AUTOGRAPH"
INDEX 01 28:25:40
TRACK 09 AUDIO
TITLE "In The Night"
PERFORMER "AUTOGRAPH"
INDEX 01 32:39:07
TRACK 10 AUDIO
TITLE "All I'm Gonna Take"
PERFORMER "AUTOGRAPH"
INDEX 01 36:37:17


APE
narod

mp3-320
megaupload

Хороший американский хард-рок середины 80-х, еще не испорченный тлетворным влиянием МТВ.Turn Up The Radio стала главным хитом группы, первоклассная среднетемповая вещь.
За рип спасибо Zak Stevens.

Image


Top
 Profile  
 
 
PostPosted: 26 Oct 2009 
HAMMER
User avatar
Joined: 16 May 2009
Posts: 5488
Lоcаtion: Тверь
Age: 46
Name: Александр
Thanks.


Top
 Profile E-mail  
 
 
PostPosted: 26 Oct 2009 
Хиппей (support team)
User avatar
Joined: 30 Jul 2007
Posts: 114883
Lоcаtion: Киев (Kyiv, UA)
Age: 46
Name: Andrey
Хм, а где ж Артур Беркут? :vic:

_________________


Top
 Profile E-mail  
 
 
PostPosted: 26 Oct 2009 
Прокъмитолист
User avatar
Joined: 12 Aug 2007
Posts: 6623
Lоcаtion: Санктъ-Петербуркъ
Age: 51
Name: Олекъ
ага, и Ситковецкого не вижу :umnik: :crazy:

_________________
прокъметол - это музыко, от которово есть прок (ы)


Top
 Profile  
 
 
PostPosted: 12 May 2014 
парень в очёчкXаX!
User avatar
Joined: 15 Aug 2007
Posts: 2353
Lоcаtion: UK'раина, г. ЛондАн Би-Би-Си
Age: 49
Name: Сергей
всегда !мощно! играли и мне нра'!!! :true:

84-й слушаю от Rock Candy :beee: :meloman:
по моему этот Rock Candy - самая гнилая эдиция по звуку всех времен и народов, вообще и в принципе! ..еще и мою любимую банду переиздали :fingal: :nunu:

пы: да, да, конечно, Андрушка, если бы не Беркут, не было бы Autograph!!! :au:


Top
 Profile  
 
Display posts from previous:  Sort by  
Post new topic Reply to topic  [ 5 posts ] 

All times are UTC + 3 hours


Who is online

Users browsing this forum: No registered users and 2 guests


You cannot post new topics in this forum
You cannot reply to topics in this forum
You cannot edit your posts in this forum
You cannot delete your posts in this forum
You cannot post attachments in this forum

Search for:
Яндекс.Метрика
Powered by phpBB © 2000, 2002, 2005, 2007 phpBB Group