\m/ 80's metal \m/

Информационно-аналитический форум "80 см пыли" (In Search We Trust) "У нас никто никуда не спешит"
Me For You - http://me-4u.com
It is currently 16 Oct 2019

All times are UTC + 3 hours

Spoiler
Chat - temporary registration for foreign users (please leave your application here)







Post new topic Reply to topic  [ 5 posts ] 
Author Message
 
PostPosted: 17 Oct 2009 
Хиппей (support team)
User avatar
Joined: 30 Jul 2007
Posts: 114839
Lоcаtion: Киев (Kyiv, UA)
Age: 46
Name: Andrey
Asmodeus - 1992 - Prosincová Noc Blíže Neurèeného Roku [ape]

    Image

Genre: Thrash Metal
Location: Czech
Format: ape+cue+log (сканов нет)
Size: 284 Mb


    1. Jsem okvмtн
    2. Prosincovб noc blнћe neurиenйho roku
    3. Panoptikum
    4. Svмtlo
    5. Ћivн mrtvн
    6. Mмsto padlэch soch
    7. Tenkrбt na Zбpadм
    8. Muka existence
    9. Litanie proti strachu
    10. Heroes
    11. Stvoшitel
    12. Kolaps
    13. Zmoshek
    bonus tracks:
    14. Veselй Vбnoce
    15. Rolniиky

    TPT: 42:06

Mega
Narod

Взято с ММТ, релизёр True Roxor :dance:

Альбом еще сам не слушал... :vic:

log
EAC extraction logfile from 21. February 2009, 16:59 for CD
ASMODEUS / Prosincovб noc blнћe neurиenйho roku

Used drive : HL-DT-STDVDRAM GSA-4163B Adapter: 1 ID: 0
Read mode : Secure with NO C2, accurate stream, disable cache
Read offset correction : 667
Overread into Lead-In and Lead-Out : No

Used output format : Internal WAV Routines
44.100 Hz; 16 Bit; Stereo

Other options :
Fill up missing offset samples with silence : Yes
Delete leading and trailing silent blocks : No
Native Win32 interface for Win NT & 2000


Range status and errors
Selected range
Filename D:\Roxor's Audio Rip\ASMODEUS - Prosincovб noc blнћe neurиenйho roku.wav

Peak level 99.6 %
Range quality 100.0 %
CRC 345882E0
Copy OK

No errors occured

End of status report


cue
REM GENRE "Thrash Metal"
REM DATE 1992
REM DISCID D209DE0F
REM COMMENT "ExactAudioCopy v0.95b4"
PERFORMER "ASMODEUS"
TITLE "Prosincovб noc blнћe neurиenйho roku"
FILE "ASMODEUS - Prosincovб noc blнћe neurиenйho roku.ape" WAVE
TRACK 01 AUDIO
TITLE "Jsem okvмtн"
PERFORMER "ASMODEUS"
INDEX 00 00:00:00
INDEX 01 00:00:33
TRACK 02 AUDIO
TITLE "Prosincovб noc blнћe neurиenйho roku"
PERFORMER "ASMODEUS"
INDEX 00 03:05:68
INDEX 01 03:08:20
TRACK 03 AUDIO
TITLE "Panoptikum"
PERFORMER "ASMODEUS"
INDEX 00 05:44:53
INDEX 01 05:47:13
TRACK 04 AUDIO
TITLE "Svмtlo"
PERFORMER "ASMODEUS"
INDEX 00 08:35:20
INDEX 01 08:37:48
TRACK 05 AUDIO
TITLE "Ћivн mrtvн"
PERFORMER "ASMODEUS"
INDEX 00 11:23:05
INDEX 01 11:25:50
TRACK 06 AUDIO
TITLE "Mмsto padlэch soch"
PERFORMER "ASMODEUS"
INDEX 00 14:26:55
INDEX 01 14:29:28
TRACK 07 AUDIO
TITLE "Tenkrбt na Zбpadм"
PERFORMER "ASMODEUS"
INDEX 00 18:16:65
INDEX 01 18:19:70
TRACK 08 AUDIO
TITLE "Muka existence"
PERFORMER "ASMODEUS"
INDEX 00 23:02:63
INDEX 01 23:05:18
TRACK 09 AUDIO
TITLE "Litanie proti strachu"
PERFORMER "ASMODEUS"
INDEX 00 26:30:53
INDEX 01 26:33:30
TRACK 10 AUDIO
TITLE "Heroes"
PERFORMER "ASMODEUS"
INDEX 00 26:41:35
INDEX 01 26:44:03
TRACK 11 AUDIO
TITLE "Stvoшitel"
PERFORMER "ASMODEUS"
INDEX 00 30:10:23
INDEX 01 30:12:68
TRACK 12 AUDIO
TITLE "Kolaps"
PERFORMER "ASMODEUS"
INDEX 00 34:53:70
INDEX 01 34:56:30
TRACK 13 AUDIO
TITLE "Zmoshek"
PERFORMER "ASMODEUS"
INDEX 00 37:46:73
INDEX 01 37:49:40
TRACK 14 AUDIO
TITLE "Veselй Vбnoce [Bonus]"
PERFORMER "ASMODEUS"
INDEX 00 38:33:30
INDEX 01 38:36:00
TRACK 15 AUDIO
TITLE "Rolniиky [Bonus]"
PERFORMER "ASMODEUS"
INDEX 00 40:14:53
INDEX 01 40:17:28

_________________


Top
 Profile E-mail  
 
 
PostPosted: 18 Oct 2009 
Работнечег
User avatar
Joined: 28 Aug 2007
Posts: 6028
Lоcаtion: г. Москва
Age: 30
Name: Дима
Пасибо Андрюх! Скачаю как-нибудь!


Top
 Profile E-mail  
 
 
PostPosted: 19 Oct 2009 
"ну типа, хэви-метал это круто и все такое..." ©
User avatar
Joined: 31 Aug 2008
Posts: 902
Lоcаtion: Запорожье
Name: Саня
7. Tenkrбt na Zбpadм :true: :true: :true: Классно сделали !Недавно как раз смотрел эту классику .


Top
 Profile  
 
 
PostPosted: 25 Oct 2009 
хард н хэвщик (support team)
User avatar
Joined: 02 Jun 2008
Posts: 16881
Lоcаtion: Н.Новгород
Age: 32
Name: Артем
Scatterbrain wrote:
Veselй Vбnoce
Tenkrбt na Zбpadм
Ћivн mrtvн

шо это у вас буквы заболели :fingal:


Top
 Profile  
 
 
PostPosted: 07 Jan 2015 
Доктор энтомологии
User avatar
Joined: 22 Jan 2009
Posts: 9925
Lоcаtion: Даугавпилс
Age: 44
Name: Алексей
прелесть то какая :dance: чем-то Коронеровским таким повеяло :dance: :lob:


Top
 Profile  
 
Display posts from previous:  Sort by  
Post new topic Reply to topic  [ 5 posts ] 

All times are UTC + 3 hours


Who is online

Users browsing this forum: No registered users and 1 guest


You cannot post new topics in this forum
You cannot reply to topics in this forum
You cannot edit your posts in this forum
You cannot delete your posts in this forum
You cannot post attachments in this forum

Search for:
Яндекс.Метрика
Powered by phpBB © 2000, 2002, 2005, 2007 phpBB Group