\m/ 80's metal \m/

Информационно-аналитический форум "80 см пыли" (In Search We Trust) "У нас никто никуда не спешит"
Me For You - http://me-4u.com
It is currently 17 Oct 2019

All times are UTC + 3 hours

Spoiler
Chat - temporary registration for foreign users (please leave your application here)







Post new topic Reply to topic  [ 5 posts ] 
Author Message
 
PostPosted: 16 Oct 2009 
Хиппей (support team)
User avatar
Joined: 30 Jul 2007
Posts: 114883
Lоcаtion: Киев (Kyiv, UA)
Age: 46
Name: Andrey
Apollo Ra - 2000 - Ra Pariah (reissued 2003) [wav]

Image

Quote:
Bootlegged on CD by Unisound Records in 2003


Genre: Power Heavy
Location: USA
Format: wav+cue+log
Size: 491 Mb


    1. Crimson Streets - 04:28
    2. Out Of The Night - 04:18
    3. Heaven's Just Another Way - 03:29
    4. Obsession - 03:16
    5. The Challenge - 03:03
    6. Creating Zero - 03:30
    7. Ra Pariah - 05:45
    8. Bane Of The Black Sword - 04:33
    9. March Of Fire - 05:25
    10. To Be A Hero - 03:52

    TPT: 41:39

Mega
Narod


Лось скачан с ММТ, автор Iron Priest :thanx:
Запись нормальная, но само издание кривовато - в нескольких местах (особенно на первом трэке), слышны лёгкие провальчики в записи. Минимальные, но слышны.
Издание, естественно, бутлежное.

Разыскивается качественный рип с винила :dance:


log
EAC extraction logfile from 15. October 2007, 22:03 for CD
Apollo Ra / Ra Pariah

Used drive : _NEC DVD_RW ND-2500A Adapter: 3 ID: 0
Read mode : Secure with NO C2, accurate stream, disable cache
Read offset correction : 48
Overread into Lead-In and Lead-Out : No

Used output format : Internal WAV Routines
44.100 Hz; 16 Bit; Stereo

Other options :
Fill up missing offset samples with silence : Yes
Delete leading and trailing silent blocks : No
Installed external ASPI interface


Range status and errors
Selected range
Filename C:\Documents and Settings\Kan\Escritorio\CDImage2.wav

Peak level 89.1 %
Range quality 99.9 %
CRC 20BD8995
Copy OK

No errors occured

End of status report


cue
PERFORMER "Apollo Ra"
TITLE "Ra Pariah"
FILE "CDImage2.wav" WAVE
TRACK 01 AUDIO
TITLE "Crimson Streets"
PERFORMER "Apollo Ra"
FLAGS DCP
INDEX 01 00:00:00
TRACK 02 AUDIO
TITLE "Out Of The Night"
PERFORMER "Apollo Ra"
FLAGS DCP
INDEX 00 04:26:05
INDEX 01 04:28:05
TRACK 03 AUDIO
TITLE "Heaven's Just Another Way"
PERFORMER "Apollo Ra"
FLAGS DCP
INDEX 00 08:44:30
INDEX 01 08:46:30
TRACK 04 AUDIO
TITLE "Obsession (The Liars Dream)"
PERFORMER "Apollo Ra"
FLAGS DCP
INDEX 00 12:13:38
INDEX 01 12:15:36
TRACK 05 AUDIO
TITLE "The Challenge"
PERFORMER "Apollo Ra"
FLAGS DCP
INDEX 00 15:29:73
INDEX 01 15:31:73
TRACK 06 AUDIO
TITLE "Creating Zero"
PERFORMER "Apollo Ra"
FLAGS DCP
INDEX 00 18:32:55
INDEX 01 18:34:55
TRACK 07 AUDIO
TITLE "Ra Pariah"
PERFORMER "Apollo Ra"
FLAGS DCP
INDEX 00 22:02:63
INDEX 01 22:04:63
TRACK 08 AUDIO
TITLE "Bane Of The Black Sword"
PERFORMER "Apollo Ra"
FLAGS DCP
INDEX 00 27:48:27
INDEX 01 27:50:27
TRACK 09 AUDIO
TITLE "March Of Fire"
PERFORMER "Apollo Ra"
FLAGS DCP
INDEX 00 32:21:19
INDEX 01 32:23:19
TRACK 10 AUDIO
TITLE "To Be A Hero"
PERFORMER "Apollo Ra"
FLAGS DCP
INDEX 00 37:45:73
INDEX 01 37:47:73
TRACK 11 AUDIO
TITLE "Coming Of Age Rukkus"
PERFORMER "Apollo Ra"
FLAGS DCP
INDEX 00 41:38:31
INDEX 01 41:40:31
TRACK 12 AUDIO
TITLE "Alone In Darkness"
PERFORMER "Apollo Ra"
FLAGS DCP
INDEX 00 44:21:71
INDEX 01 44:23:71

_________________


Top
 Profile E-mail  
 
 
PostPosted: 01 Sep 2011 
Хиппей (support team)
User avatar
Joined: 30 Jul 2007
Posts: 114883
Lоcаtion: Киев (Kyiv, UA)
Age: 46
Name: Andrey
Эх, едрить, какой же всё-таки прекрасный альбом, несмотря на косячки в переиздании.

Всем поклонникам ранних Metal Church, "средних" Judas Priest и Iron Maiden рекомендуется :true:
А так же тем, кто обожает очень техничную, но не сложную для уха музыку, отточенную до блеска работу ритм-секции и, конечно же, великолепный вокал, умеющий действительно качественно петь в разных тональностях и вытягивать самые высокие ноты, при этом не сбиваясь на визг :meloman:
Плюс ко всему здесь 10 хитов из 10.

Оценка: 10/10, естественно.

_________________


Top
 Profile E-mail  
 
 
PostPosted: 03 Sep 2011 
ТрэшЭрос
User avatar
Joined: 18 Jul 2011
Posts: 2305
Lоcаtion: Гулькевичи
Age: 44
Name: Александр
Саныч, опосля такой рекламы сам Рок велел услышать сей шедеффррр! :true:
Качну на пробу... :thanx:

_________________
Thrash no trash!!!


Top
 Profile E-mail  
 
 
PostPosted: 22 Dec 2013 
Труъ
Joined: 29 May 2012
Posts: 178
Age: 46
Name: Mихаил
Эх, едрить, какой же всё-таки прекрасный альбом, несмотря на косячки в переиздании.

Всем поклонникам ранних Metal Church, "средних" Judas Priest и Iron Maiden рекомендуется :true:
А так же тем, кто обожает очень техничную, но не сложную для уха музыку, отточенную до блеска работу ритм-секции и, конечно же, великолепный вокал, умеющий действительно качественно петь в разных тональностях и вытягивать самые высокие ноты, при этом не сбиваясь на визг :meloman:
Плюс ко всему здесь 10 хитов из 10.

Оценка: 10/10, естественно.
Всем поклонникам Crimson Glory ;)


Top
 Profile  
 
 
PostPosted: 22 Dec 2013 
Хиппей (support team)
User avatar
Joined: 30 Jul 2007
Posts: 114883
Lоcаtion: Киев (Kyiv, UA)
Age: 46
Name: Andrey
Ну вот про Кримзон Глори сейчас и не скажу толком. Но явно тоже похожи по звучанию :dance:
Тогда уж и Саватаж упомянуть здесь не будет лишним.

_________________


Top
 Profile E-mail  
 
Display posts from previous:  Sort by  
Post new topic Reply to topic  [ 5 posts ] 

All times are UTC + 3 hours


Who is online

Users browsing this forum: No registered users and 2 guests


You cannot post new topics in this forum
You cannot reply to topics in this forum
You cannot edit your posts in this forum
You cannot delete your posts in this forum
You cannot post attachments in this forum

Search for:
Яндекс.Метрика
Powered by phpBB © 2000, 2002, 2005, 2007 phpBB Group