\m/ 80's metal \m/

Информационно-аналитический форум "80 см пыли" (In Search We Trust) "У нас никто никуда не спешит"
Железнодорожная биржа - RailAgent
It is currently 15 Aug 2018

All times are UTC + 3 hours

Spoiler
Chat - temporary registration for foreign users (please leave your application here)







Post new topic Reply to topic  [ 7 posts ] 
Author Message
 
PostPosted: 26 Sep 2009 
Я набрал 1000 сообщений!
User avatar
Joined: 25 Dec 2008
Posts: 1545
Age: 42
Name: Павел
Apostle - Prepare To Meet God
Country:USA
Year:1994
Genre:Power Metal
Format:flac+cue+log+covers
Size:222 Mb

Image
Image

cue
REM GENRE Rock
REM DATE 1994
REM DISCID 8307E609
REM COMMENT "ExactAudioCopy v0.99pb1"
PERFORMER "Apostle"
TITLE "Prepare To Meet God"
FILE "Apostle - Prepare To Meet God.wav" WAVE
TRACK 01 AUDIO
TITLE "Six Hundred Sixty Six"
PERFORMER "Apostle"
INDEX 01 00:00:00
TRACK 02 AUDIO
TITLE "Beatitude"
PERFORMER "Apostle"
INDEX 01 03:34:05
TRACK 03 AUDIO
TITLE "Resurrection Dance"
PERFORMER "Apostle"
INDEX 01 09:01:48
TRACK 04 AUDIO
TITLE "Inferno"
PERFORMER "Apostle"
INDEX 01 12:45:18
TRACK 05 AUDIO
TITLE "Betrayed"
PERFORMER "Apostle"
INDEX 01 14:24:41
TRACK 06 AUDIO
TITLE "Alpha and Omega"
PERFORMER "Apostle"
INDEX 01 18:47:24
TRACK 07 AUDIO
TITLE "In the New Love"
PERFORMER "Apostle"
INDEX 01 22:26:36
TRACK 08 AUDIO
TITLE "Pray"
PERFORMER "Apostle"
INDEX 01 26:13:42
TRACK 09 AUDIO
TITLE "Burn it Up"
PERFORMER "Apostle"
INDEX 01 31:13:72

log
Exact Audio Copy V0.99 prebeta 1 from 25. May 2007

Отчёт EAC об извлечении, выполненном 4. декабря 2008, 16:58

Apostle / Prepare To Meet God

Дисковод: PLEXTOR DVDR PX-750A Adapter: 0 ID: 0

Режим чтения : Достоверность
Использование точного потока : Да
Отключение кэша аудио : Нет
Использование указателей C2 : Да

Коррекция смещения при чтении : 102
Способность читать области Lead-in и Lead-out : Нет
Заполнение пропущенных сэмплов тишиной : Да
Удаление блоков с тишиной в начале и конце : Нет
Интерфейс : Встроенный Win32-интерфейс для Win NT/2000

Выходной формат : Внутренние WAV-операции
Формат сэмплов : 44.100 Гц; 16 бит; стерео


TOC извлечённого CD

Трек | Старт | Длительность | Начальный сектор | Конечный сектор
---------------------------------------------------------------------
1 | 0:00.00 | 3:34.05 | 0 | 16054
2 | 3:34.05 | 5:27.43 | 16055 | 40622
3 | 9:01.48 | 3:43.45 | 40623 | 57392
4 | 12:45.18 | 1:39.23 | 57393 | 64840
5 | 14:24.41 | 4:22.58 | 64841 | 84548
6 | 18:47.24 | 3:39.12 | 84549 | 100985
7 | 22:26.36 | 3:47.06 | 100986 | 118016
8 | 26:13.42 | 5:00.30 | 118017 | 140546
9 | 31:13.72 | 2:28.53 | 140547 | 151699


Характеристики диапазона извлечения и сообщения об ошибках

Выбранный диапазон

Имя файла F:\Apostle - Prepare To Meet God.wav

Пиковый уровень 100.0 %
Качество диапазона 99.9 %
CRC копии 4AAF10C3
Копирование... OK


AccurateRip: сводка

Трек 1 нет в базе данных
Трек 2 нет в базе данных
Трек 3 нет в базе данных
Трек 4 нет в базе данных
Трек 5 нет в базе данных
Трек 6 нет в базе данных
Трек 7 нет в базе данных
Трек 8 нет в базе данных
Трек 9 нет в базе данных

Ошибок не произошло

Конец отчёта


Line-up:
David Brown – Lead Vocals
Matt Harding – Guitars
Larry Motes – Bass
David McKee – Drums

Guest Musicians
Mark Borrero – Bass
Jerry Mehm - Drums

Tracklist:
1. Six Hundred Sixty Six
2. Beautitude
3. Resurrection Dance
4. Inferno
5. Betrayed
6. Alpha And Omega
7. In The New Love
8. Pray
9. Burn It Up

Рип от Вадима(Vadim)

Apostle - Prepare To Meet God.rar


Top
 Profile  
 
 
PostPosted: 26 Sep 2009 
Хиппей (support team)
User avatar
Joined: 30 Jul 2007
Posts: 105602
Lоcаtion: Киев (Kyiv, UA)
Age: 45
Name: Andrey
О, данке шён :thanx:

_________________


Top
 Profile E-mail  
 
 
PostPosted: 26 Sep 2009 
Пионэръ
Joined: 07 Apr 2009
Posts: 31
Lоcаtion: Deutschland
Age: 54
Name: Eric
very welcome!THX

direct into the collection.


Top
 Profile  
 
 
PostPosted: 27 Sep 2009 
хард н хэвщик (support team)
User avatar
Joined: 02 Jun 2008
Posts: 16880
Lоcаtion: Н.Новгород
Age: 31
Name: Артем
veszprem
what's your name and from where Country you are ?


Top
 Profile  
 
 
PostPosted: 03 Oct 2009 
Пионэръ
Joined: 07 Apr 2009
Posts: 31
Lоcаtion: Deutschland
Age: 54
Name: Eric
...eric, now living in frankfurt, germany. thx for this channel!!!


Top
 Profile  
 
 
PostPosted: 03 Oct 2009 
Прокъмитолист
User avatar
Joined: 12 Aug 2007
Posts: 6444
Lоcаtion: Санктъ-Петербуркъ
Age: 50
Name: Олекъ
veszprem
hi, Eric! it seems that I know you as 'valenz' from MMT. am I right? ;)

_________________
прокъметол - это музыко, от которово есть прок (ы)


Top
 Profile  
 
 
PostPosted: 04 Oct 2009 
Пионэръ
Joined: 07 Apr 2009
Posts: 31
Lоcаtion: Deutschland
Age: 54
Name: Eric
YESSS!
------------
best compilation ever :dance:
http://lockjaw-yappy.blogspot.com/search?q=heavy+artillery


Top
 Profile  
 
Display posts from previous:  Sort by  
Post new topic Reply to topic  [ 7 posts ] 

All times are UTC + 3 hours


Who is online

Users browsing this forum: No registered users and 2 guests


You cannot post new topics in this forum
You cannot reply to topics in this forum
You cannot edit your posts in this forum
You cannot delete your posts in this forum
You cannot post attachments in this forum

Search for:
Яндекс.Метрика
Powered by phpBB © 2000, 2002, 2005, 2007 phpBB Group