\m/ 80's metal \m/

Информационно-аналитический форум "80 см пыли" (In Search We Trust) "У нас никто никуда не спешит"
Me For You - http://me-4u.com
It is currently 20 Oct 2019

All times are UTC + 3 hours

Spoiler
Chat - temporary registration for foreign users (please leave your application here)







Post new topic Reply to topic  [ 5 posts ] 
Author Message
 
PostPosted: 20 Sep 2009 
Old Time Rock`n`Roll
User avatar
Joined: 23 Jun 2008
Posts: 3490
Warnings: 1
Lоcаtion: г.Ульяновск
Age: 41
Name: Константин
Angeles Del Infierno – Pacto Con El Diablo (1984)

Image

Year:1984
Style: Traditional Heavy Metal
Country: Spain
Format: APE + log + cue+scans & mp3-320
Size: 276 Mb + 84 Mb

Tracklist
01. Maldito sea tu nombre [3:45]
02. Rocker [2:54]
03. Unidos por el Rock [3:48]
04. Esclavos de la noche [3:15]
05. Sombras en la oscuridad [5:12]
06. El principio del Fin [3:55]
07. Condenados a vivir [3:06]
08. Sangre [3:39]
09. No juegues con fuego [4:17]
10. Es un pacto con el diablo [3:06]

Line-Up
Juan Gallardo - Vocals
Robert Alvarez - Guitar
Manu Garcia - Guitar
Santi Rubio - Bass
Iñaki Munita - Drums

TPT – 37:01

Image

Spectres

Image

Лог
EAC extraction logfile from 10. December 2005, 23:09 for CD
Angeles del Infierno / Pacto con el diablo

Used drive : LITE-ON DVDRW SOHW-832S Adapter: 0 ID: 0
Read mode : Secure with NO C2, accurate stream, disable cache
Read offset correction : 12
Overread into Lead-In and Lead-Out : No

Used output format : C:\Archivos de programa\Exact Audio Copy\MAC.exe (Monkey's Audio Lossless Encoder)
High Lossless Compression

Other options :
Fill up missing offset samples with silence : Yes
Delete leading and trailing silent blocks : No
Installed external ASPI interface


Range status and errors
Selected range
Filename F:\Angeles.Del.Infierno.[1984].[CD].Pacto.Con.El.Diablo.[EAC-APE].BY.Luchadorconpinkita.[MeTaLMaDNess.TeaM]\CDImage.wav

Peak level 100.0 %
Range quality 100.0 %
CRC 4653E3DD
Copy OK

No errors occured

End of status report


Куй
PERFORMER "Angeles del Infierno"
TITLE "Pacto con el diablo"
FILE "CDImage.ape" WAVE
TRACK 01 AUDIO
TITLE "Maldito sea tu nombre"
PERFORMER "Angeles del Infierno"
INDEX 00 00:00:00
INDEX 01 00:00:32
TRACK 02 AUDIO
TITLE "Rocker"
PERFORMER "Angeles del Infierno"
INDEX 00 03:44:35
INDEX 01 03:45:55
TRACK 03 AUDIO
TITLE "Unidos por el Rock"
PERFORMER "Angeles del Infierno"
INDEX 00 06:38:70
INDEX 01 06:40:10
TRACK 04 AUDIO
TITLE "Esclavos de la noche"
PERFORMER "Angeles del Infierno"
INDEX 00 10:27:60
INDEX 01 10:29:10
TRACK 05 AUDIO
TITLE "Sombras en la oscuridad"
PERFORMER "Angeles del Infierno"
INDEX 00 13:42:20
INDEX 01 13:44:27
TRACK 06 AUDIO
TITLE "El principio del Fin"
PERFORMER "Angeles del Infierno"
INDEX 00 18:54:73
INDEX 01 18:56:57
TRACK 07 AUDIO
TITLE "Condenados a vivir"
PERFORMER "Angeles del Infierno"
INDEX 00 22:49:60
INDEX 01 22:51:62
TRACK 08 AUDIO
TITLE "Sangre"
PERFORMER "Angeles del Infierno"
INDEX 00 25:56:55
INDEX 01 25:57:70
TRACK 09 AUDIO
TITLE "No juegues con fuego"
PERFORMER "Angeles del Infierno"
INDEX 00 29:36:03
INDEX 01 29:37:25
TRACK 10 AUDIO
TITLE "Es un pacto con el diablo"
PERFORMER "Angeles del Infierno"
INDEX 00 33:53:13
INDEX 01 33:55:10


APE
narod-ape

mp3-320
megaupload-mp3-320


MMT, автор рипа - Luchador.


Top
 Profile  
 
 
PostPosted: 19 Mar 2010 
Thrasher
User avatar
Joined: 07 Oct 2007
Posts: 2782
Lоcаtion: Russia, Moscow
Age: 35
Name: Drunk & Evil
Спасибо! :thanx:

_________________
ВОДКА, БАБЫ И БЛЮЗ / 40° till death... :bodun:
One time we saw some hookers, but when we got closer, we realised it was Mötley Crüe. ©


Top
 Profile  
 
 
PostPosted: 31 Aug 2011 
Хиппей (support team)
User avatar
Joined: 30 Jul 2007
Posts: 114953
Lоcаtion: Киев (Kyiv, UA)
Age: 46
Name: Andrey
:thanx:
Ненавижу испаноязычные группы в хэви и хард-роке, только в трэше и брутале он звучит привычнее, но... Это альбом исключение.
Естественно, поржал во время прослушивания, как обычно, но альбом порадовал качественной игрой музыкантов (и, конечно же, бэками тотально-хоральными). :true:
По сути это спид-метол, но не тупое молотилово, а очень изящный и техничный хзэви.
Классика и мастхэв в одном плафоне.

Звук на переиздании отменный :meloman:

8/10

_________________


Top
 Profile E-mail  
 
 
PostPosted: 31 Aug 2011 
Хиппей (support team)
User avatar
Joined: 30 Jul 2007
Posts: 114953
Lоcаtion: Киев (Kyiv, UA)
Age: 46
Name: Andrey
mirror: MultiUp l Narod

_________________


Top
 Profile E-mail  
 
 
PostPosted: 31 Aug 2011 
Доктор энтомологии
User avatar
Joined: 22 Jan 2009
Posts: 9927
Lоcаtion: Даугавпилс
Age: 44
Name: Алексей
Спасибо за 320 :thanx: Не слушал их ни разу, скушаю.


Top
 Profile  
 
Display posts from previous:  Sort by  
Post new topic Reply to topic  [ 5 posts ] 

All times are UTC + 3 hours


Who is online

Users browsing this forum: No registered users and 2 guests


You cannot post new topics in this forum
You cannot reply to topics in this forum
You cannot edit your posts in this forum
You cannot delete your posts in this forum
You cannot post attachments in this forum

Search for:
Яндекс.Метрика
Powered by phpBB © 2000, 2002, 2005, 2007 phpBB Group