\m/ 80's metal \m/

Информационно-аналитический форум "80 см пыли" (In Search We Trust) "У нас никто никуда не спешит"
Me For You - http://me-4u.com
It is currently 22 Oct 2019

All times are UTC + 3 hours

Spoiler
Chat - temporary registration for foreign users (please leave your application here)







Post new topic Reply to topic  [ 66 posts ]  Go to page Previous  1, 2, 3, 4
Author Message
 
PostPosted: 22 May 2011 
Персональный статус
Joined: 02 Apr 2010
Posts: 223
Name: Андрей
AXIA - Axia - 1986(2004) APE(Image+Cue) : http://ifolder.ru/23696345
Автор рипа Bengamin c Moole.ru


Top
 Profile  
 
 
PostPosted: 22 May 2011 
10cm
User avatar
Joined: 22 Mar 2011
Posts: 90
Lоcаtion: Брянск
Age: 28
Name: Олег
cammard Спасибо! ;)

_________________
Death To All But Metal!!!!


Top
 Profile E-mail  
 
 
PostPosted: 23 May 2011 
Хиппей (support team)
User avatar
Joined: 30 Jul 2007
Posts: 115005
Lоcаtion: Киев (Kyiv, UA)
Age: 46
Name: Andrey
Андрюх, спасибо :thanx:
И в первую очередь товарищу Бенджамину с Мооле :true:

_________________


Top
 Profile E-mail  
 
 
PostPosted: 23 May 2011 
Хиппей (support team)
User avatar
Joined: 30 Jul 2007
Posts: 115005
Lоcаtion: Киев (Kyiv, UA)
Age: 46
Name: Andrey
Axia - 1986 - Axia (reissued) [ape]

Attachment:
full front.jpg
full front.jpg [ 2.62 MiB | Viewed 111 times ]


Attachment:
back.jpg
back.jpg [ 1.61 MiB | Viewed 100 times ]


mirror: MultiUp l Narod


log
Exact Audio Copy V0.99 prebeta 4 from 23. January 2008

Отчёт EAC об извлечении, выполненном 2. июня 2010, 19:43

AXIA / AXIA

Дисковод: HL-DT-STDVDRAM GSA-H44N Adapter: 0 ID: 0

Режим чтения : Достоверность
Использование точного потока : Да
Отключение кэша аудио : Да
Использование указателей C2 : Нет

Коррекция смещения при чтении : 667
Способность читать области Lead-in и Lead-out : Нет
Заполнение пропущенных сэмплов тишиной : Да
Удаление блоков с тишиной в начале и конце : Нет
При вычислениях CRC использовались нулевые сэмплы : Да
Интерфейс : Встроенный Win32-интерфейс для Win NT/2000

Выходной формат : Monkey's Audio (без потерь)
Выбранный битрейт : Normal Lossless Compression
Качество : Высокий
Добавление ID3-тэга : Да
Утилита сжатия : C:\Program Files\Monkey's Audio\MAC.exe


TOC извлечённого CD

Трек | Старт | Длительность | Начальный сектор | Конечный сектор
---------------------------------------------------------------------
1 | 0:00.00 | 1:10.04 | 0 | 5253
2 | 1:10.04 | 3:34.61 | 5254 | 21364
3 | 4:44.65 | 5:17.01 | 21365 | 45140
4 | 10:01.66 | 3:26.17 | 45141 | 60607
5 | 13:28.08 | 4:54.73 | 60608 | 82730
6 | 18:23.06 | 2:33.03 | 82731 | 94208
7 | 20:56.09 | 3:13.51 | 94209 | 108734
8 | 24:09.60 | 3:48.36 | 108735 | 125870
9 | 27:58.21 | 3:57.35 | 125871 | 143680
10 | 31:55.56 | 3:14.33 | 143681 | 158263
11 | 35:10.14 | 2:29.02 | 158264 | 169440
12 | 37:39.16 | 4:38.44 | 169441 | 190334
13 | 42:17.60 | 3:12.13 | 190335 | 204747
14 | 45:29.73 | 3:32.50 | 204748 | 220697


Характеристики диапазона извлечения и сообщения об ошибках

Выбранный диапазон

Имя файла D:\Downloads\Музыка\Archiv\подготовка\AXIA - AXIA\AXIA - AXIA.wav

Пиковый уровень 100.0 %
Качество диапазона 100.0 %
CRC копии 8E8B9720
Копирование... OK

Ошибок не произошло

Конец отчёта


cue
REM GENRE "Hard Rock"
REM DATE 1986
REM DISCID A10B7E0E
REM COMMENT "ExactAudioCopy v0.99pb4"
PERFORMER "AXIA"
TITLE "AXIA"
FILE "AXIA - AXIA.wav" WAVE
TRACK 01 AUDIO
TITLE "Intro(Instrumental)"
PERFORMER "AXIA"
FLAGS DCP
INDEX 01 00:00:00
TRACK 02 AUDIO
TITLE "It Ain't Love"
PERFORMER "AXIA"
FLAGS DCP
INDEX 00 01:08:04
INDEX 01 01:10:04
TRACK 03 AUDIO
TITLE "Loser"
PERFORMER "AXIA"
FLAGS DCP
INDEX 00 04:42:65
INDEX 01 04:44:65
TRACK 04 AUDIO
TITLE "In For Rock'n Roll"
PERFORMER "AXIA"
FLAGS DCP
INDEX 00 09:59:66
INDEX 01 10:01:66
TRACK 05 AUDIO
TITLE "Falling Apart"
PERFORMER "AXIA"
FLAGS DCP
INDEX 00 13:26:08
INDEX 01 13:28:08
TRACK 06 AUDIO
TITLE "On My Way"
PERFORMER "AXIA"
FLAGS DCP
INDEX 00 18:21:06
INDEX 01 18:23:06
TRACK 07 AUDIO
TITLE "Angela"
PERFORMER "AXIA"
FLAGS DCP
INDEX 00 20:54:09
INDEX 01 20:56:09
TRACK 08 AUDIO
TITLE "Get Down"
PERFORMER "AXIA"
FLAGS DCP
INDEX 00 24:07:60
INDEX 01 24:09:60
TRACK 09 AUDIO
TITLE "Confession Of Love"
PERFORMER "AXIA"
FLAGS DCP
INDEX 00 27:56:21
INDEX 01 27:58:21
TRACK 10 AUDIO
TITLE "Fire"
PERFORMER "AXIA"
FLAGS DCP
INDEX 00 31:53:56
INDEX 01 31:55:56
TRACK 11 AUDIO
TITLE "Increasing Action"
PERFORMER "AXIA"
FLAGS DCP
INDEX 00 35:08:14
INDEX 01 35:10:14
TRACK 12 AUDIO
TITLE "Forced Into Darkness"
PERFORMER "AXIA"
FLAGS DCP
INDEX 00 37:37:16
INDEX 01 37:39:16
TRACK 13 AUDIO
TITLE "Never Ending Love"
PERFORMER "AXIA"
FLAGS DCP
INDEX 00 42:15:60
INDEX 01 42:17:60
TRACK 14 AUDIO
TITLE "The Savege Ramblers"
PERFORMER "AXIA"
FLAGS DCP
INDEX 00 45:27:73
INDEX 01 45:29:73

_________________


Top
 Profile E-mail  
 
 
PostPosted: 23 May 2011 
Хиппей (support team)
User avatar
Joined: 30 Jul 2007
Posts: 115005
Lоcаtion: Киев (Kyiv, UA)
Age: 46
Name: Andrey
Scatterbrain wrote:
...прослушал :true:
Офигенный альбом (в меру мелодичный хард-рок 80-х). Качеством доволен :dance:

Собственно, от своих слов не отказываюсь. Только сделаю поправку, что иногда группа использует и элементы Heavy Metal, но... не так часто, как хотелось бы.
Поэтому их и удалили с сайта Metal-Archives :pardon:

Оценочка по переизданию:

8/10

Кстати, бонусы очень понравились и что удивительно, не выпадают из альбома, как это обычно бывает :meloman:

_________________


Top
 Profile E-mail  
 
 
PostPosted: 21 Oct 2011 
Хиппей (support team)
User avatar
Joined: 30 Jul 2007
Posts: 115005
Lоcаtion: Киев (Kyiv, UA)
Age: 46
Name: Andrey
spryt777 wrote:
Axia - Charge It Up & Blast It Out! 1985 EP - 320kbps

1. Increasing Action
2. Forced into Farkness
3. Never Ending Love
4. Savage Ramblers

http://spinoza.ifolder.ru/18220696

Кстати, это рип с переиздания, если что. Трэки, которые вошли в виде бонусов на альбом 1986 года.
Сейчас пытался поспать минут 20. Не получилось. Мабилу нада все ж отключать... :esel:
А музычка здесь ни что иное, как... Melodic Metal.
Очень напомнило какой-то из первых альбомов Ингви Мальмштайна :meloman:
Там тоже вокалист немного перебирал с писком и тянул одеяло на себя :fly:

7/10

_________________


Top
 Profile E-mail  
 
Display posts from previous:  Sort by  
Post new topic Reply to topic  [ 66 posts ]  Go to page Previous  1, 2, 3, 4

All times are UTC + 3 hours


Who is online

Users browsing this forum: No registered users and 4 guests


You cannot post new topics in this forum
You cannot reply to topics in this forum
You cannot edit your posts in this forum
You cannot delete your posts in this forum
You cannot post attachments in this forum

Search for:
Яндекс.Метрика
Powered by phpBB © 2000, 2002, 2005, 2007 phpBB Group