\m/ 80's metal \m/

Информационно-аналитический форум "80 см пыли" (In Search We Trust) "У нас никто никуда не спешит"
Me For You - http://me-4u.com
It is currently 20 Oct 2019

All times are UTC + 3 hours

Spoiler
Chat - temporary registration for foreign users (please leave your application here)







Post new topic Reply to topic  [ 29 posts ]  Go to page 1, 2  Next
Author Message
 
PostPosted: 30 Aug 2009 
Зарегился вот...
Joined: 29 Aug 2009
Posts: 3
Name: Peter
Attila (US) - Rolling Thunder

Image

Tracklist:
01. Turn Up The Power
02. Urban Commandos
03. March Of Kings
04. Defcon 1 / Thermonuclear Warrior
05. Rolling Thunder
06. Wild
07. School's Out (Alice Cooper Cover)
08. Chains Around Heaven
09. Tryst

Info: http://metal-archives.com/band.php?id=13732

Rapidshare
Narod


Top
 Profile E-mail  
 
 
PostPosted: 30 Aug 2009 
HAMMER
User avatar
Joined: 16 May 2009
Posts: 5488
Lоcаtion: Тверь
Age: 46
Name: Александр
Thanks


Top
 Profile E-mail  
 
 
PostPosted: 30 Aug 2009 
Хиппей (support team)
User avatar
Joined: 30 Jul 2007
Posts: 114953
Lоcаtion: Киев (Kyiv, UA)
Age: 46
Name: Andrey
:thanx:

_________________


Top
 Profile E-mail  
 
 
PostPosted: 30 Aug 2009 
А может смените мне статус?..
User avatar
Joined: 01 Jun 2008
Posts: 559
Lоcаtion: Россия
Age: 43
Name: Вадик
Спасибо! Отличный альбом!


Top
 Profile  
 
 
PostPosted: 30 Aug 2009 
Персональный статус
User avatar
Joined: 16 Jul 2008
Posts: 222
Lоcаtion: Киров
Age: 30
Name: Олег
Да, действительно цепляющий альбом. Особенно одноименная песня :true: Спасибо!


Top
 Profile  
 
 
PostPosted: 02 Sep 2009 
А может смените мне статус?..
User avatar
Joined: 17 Jan 2008
Posts: 897
Lоcаtion: Пенза
Age: 42
Name: Денис
Отличный US Power Metal на грани с трешем.... :true:


Top
 Profile  
 
 
PostPosted: 02 Sep 2009 
Работнечег
User avatar
Joined: 28 Aug 2007
Posts: 6035
Lоcаtion: г. Москва
Age: 30
Name: Дима
Спасибо, обновлюсь!


Top
 Profile E-mail  
 
 
PostPosted: 09 Jul 2014 
Я набрал 1000 сообщений!
Joined: 21 Nov 2009
Posts: 1415
Lоcаtion: praga
Age: 49
Name: Сергей
Привет.Залейте пожалуйста лося,с рутраскера скачать можно только наверное за месяц. :esel: спасибо.


Top
 Profile E-mail  
 
 
PostPosted: 09 Jul 2014 
Хиппей (support team)
User avatar
Joined: 30 Jul 2007
Posts: 114953
Lоcаtion: Киев (Kyiv, UA)
Age: 46
Name: Andrey
А у нас лося в этой теме точно не было :pardon:

_________________


Top
 Profile E-mail  
 
 
PostPosted: 09 Jul 2014 
Я набрал 1000 сообщений!
Joined: 21 Nov 2009
Posts: 1415
Lоcаtion: praga
Age: 49
Name: Сергей
Не было!


Top
 Profile E-mail  
 
 
PostPosted: 10 Jul 2014 
Partisanen - nicht kapitulieren!!
User avatar
Joined: 25 Dec 2011
Posts: 7151
Lоcаtion: партизанские леса
Age: 47
Name: Владимир
лося попробуем вытянуть, на MMT попросил по-новой расшарить...
и на всякий случай зеркало -mail.ru

_________________
One more beer and Heavy Metal and I'm just fine!
старовер, куле... слово "блин" - до сих пор через Ъ говорю


Top
 Profile E-mail  
 
 
PostPosted: 10 Jul 2014 
Partisanen - nicht kapitulieren!!
User avatar
Joined: 25 Dec 2011
Posts: 7151
Lоcаtion: партизанские леса
Age: 47
Name: Владимир
огась... ищо можно с ваты забрать
Image
устроит? :vic:

_________________
One more beer and Heavy Metal and I'm just fine!
старовер, куле... слово "блин" - до сих пор через Ъ говорю


Top
 Profile E-mail  
 
 
PostPosted: 10 Jul 2014 
Персональный статус
User avatar
Joined: 28 Mar 2013
Posts: 421
Lоcаtion: Russia (Bryansk)
Age: 26
Name: Michael
Тут был лось с винила http://heavymetalrarities.com/forum/viewtopic.php?f=20&t=7941&hilit=Attila :dash:


Top
 Profile E-mail  
 
 
PostPosted: 10 Jul 2014 
Partisanen - nicht kapitulieren!!
User avatar
Joined: 25 Dec 2011
Posts: 7151
Lоcаtion: партизанские леса
Age: 47
Name: Владимир

Это, видимо, тот же, что и на вате... Только там во флак упакован :vic:

_________________
One more beer and Heavy Metal and I'm just fine!
старовер, куле... слово "блин" - до сих пор через Ъ говорю


Top
 Profile E-mail  
 
 
PostPosted: 10 Jul 2014 
Прокъмитолист
User avatar
Joined: 12 Aug 2007
Posts: 6627
Lоcаtion: Санктъ-Петербуркъ
Age: 52
Name: Олекъ
релиз rockberto с ММТ: https://yadi.sk/d/GsWy0refWLfAz

_________________
прокъметол - это музыко, от которово есть прок (ы)


Top
 Profile  
 
 
PostPosted: 10 Jul 2014 
Я набрал 1000 сообщений!
Joined: 21 Nov 2009
Posts: 1415
Lоcаtion: praga
Age: 49
Name: Сергей
Спасибо товарищи за лося.


Top
 Profile E-mail  
 
 
PostPosted: 11 Jul 2014 
Хиппей (support team)
User avatar
Joined: 30 Jul 2007
Posts: 114953
Lоcаtion: Киев (Kyiv, UA)
Age: 46
Name: Andrey
:thanx:

Image

mirror: Narod l M-Cloud

log
EAC extraction logfile from 3. July 2009, 19:56 for CD
Attila / Rolling Thunder

Used drive : HL-DT-STDVD-RAM GH22LS30 Adapter: 1 ID: 1
Read mode : Secure with NO C2, accurate stream, disable cache
Read offset correction : 102
Overread into Lead-In and Lead-Out : No

Used output format : C:\Programmi\Exact Audio Copy\MAC.EXE (Monkey's Audio Lossless Encoder)
High Lossless Compression

Other options :
Fill up missing offset samples with silence : Yes
Delete leading and trailing silent blocks : No
Native Win32 interface for Win NT & 2000


Range status and errors
Selected range
Filename C:\Documents and Settings\oem\Documenti\Attila - Rolling Thunder\Attila - Rolling Thunder.wav.wav

Peak level 83.6 %
Range quality 100.0 %
CRC 4AFC4C05
Copy OK

No errors occured

End of status report

cue
REM GENRE "Hard Rock"
REM DATE 1986
REM DISCID 76086109
REM COMMENT "ExactAudioCopy v0.95b4"
PERFORMER "Attila"
TITLE "Rolling Thunder"
FILE "Attila - Rolling Thunder.wav" WAVE
TRACK 01 AUDIO
TITLE "Turn up the power"
PERFORMER "Attila"
INDEX 01 00:00:00
TRACK 02 AUDIO
TITLE "Urban commandos"
PERFORMER "Attila"
INDEX 01 03:31:30
TRACK 03 AUDIO
TITLE "March of kings"
PERFORMER "Attila"
INDEX 01 06:22:30
TRACK 04 AUDIO
TITLE "Defcon I / Thermonuclear Warrior"
PERFORMER "Attila"
INDEX 01 11:32:06
TRACK 05 AUDIO
TITLE "Rolling thunder"
PERFORMER "Attila"
INDEX 01 17:42:72
TRACK 06 AUDIO
TITLE "Wild"
PERFORMER "Attila"
INDEX 01 21:11:72
TRACK 07 AUDIO
TITLE "School's Out"
PERFORMER "Attila"
INDEX 01 24:09:37
TRACK 08 AUDIO
TITLE "Chains around heaven"
PERFORMER "Attila"
INDEX 01 27:34:55
TRACK 09 AUDIO
TITLE "Tryst"
PERFORMER "Attila"
INDEX 01 31:15:72

Image

_________________


Top
 Profile E-mail  
 
 
PostPosted: 11 Jul 2014 
Partisanen - nicht kapitulieren!!
User avatar
Joined: 25 Dec 2011
Posts: 7151
Lоcаtion: партизанские леса
Age: 47
Name: Владимир
ATTILA [1986] [CD] Rolling Thunder [EAC-APE] by rockberto [MeTaLMaDNeSS.TeaM]
Image

_________________
One more beer and Heavy Metal and I'm just fine!
старовер, куле... слово "блин" - до сих пор через Ъ говорю


Top
 Profile E-mail  
 
 
PostPosted: 12 Jul 2014 
Хиппей (support team)
User avatar
Joined: 30 Jul 2007
Posts: 114953
Lоcаtion: Киев (Kyiv, UA)
Age: 46
Name: Andrey
Да, действительно цепляющий альбом. Особенно одноименная песня :true: Спасибо!

Очередной симпатичный, но более "прогрессивный" клон Пристов :meloman:

_________________


Top
 Profile E-mail  
 
 
PostPosted: 12 Jul 2014 
ТрэшЭрос
User avatar
Joined: 18 Jul 2011
Posts: 2305
Lоcаtion: Гулькевичи
Age: 44
Name: Александр
:thanx: :true:

_________________
Thrash no trash!!!


Top
 Profile E-mail  
 
Display posts from previous:  Sort by  
Post new topic Reply to topic  [ 29 posts ]  Go to page 1, 2  Next

All times are UTC + 3 hours


Who is online

Users browsing this forum: No registered users and 1 guest


You cannot post new topics in this forum
You cannot reply to topics in this forum
You cannot edit your posts in this forum
You cannot delete your posts in this forum
You cannot post attachments in this forum

Search for:
Яндекс.Метрика
Powered by phpBB © 2000, 2002, 2005, 2007 phpBB Group