\m/ 80's metal \m/

Информационно-аналитический форум "80 см пыли" (In Search We Trust) "У нас никто никуда не спешит"
Железнодорожная биржа - RailAgent
It is currently 23 Jun 2018

All times are UTC + 3 hours

Spoiler
Chat - temporary registration for foreign users (please leave your application here)







Post new topic Reply to topic  [ 13 posts ] 
Author Message
 
PostPosted: 27 Aug 2009 
Хиппей (support team)
User avatar
Joined: 30 Jul 2007
Posts: 104561
Lоcаtion: Киев (Kyiv, UA)
Age: 45
Name: Andrey
Anihilated - 1989 - The Ultimate Desecration (reissued 2008)

Image

Genre: Thrash Metal
Location: England
Format: flac+cue+log+scans
Size: 568 Mb


Quote:
Ressued by Marquee records


    1. Desolation
    2. Into the Flames of Armageddon
    3. Skinned Alive
    4. Lost Souls
    5. Lethal Dose
    6. No Rest for the Wicked
    7. Internal Darkness
    8. Legacy of Hate
    9. Enter the Realm
    10. Exeunt
    11. Bloodsport (live)
    12. Shattered (live)
    13. No rest for the wicked (live)


    TPT: 52:25

Mega
Narod

Альбом получился более техничным, но и немного скучноватым. Звук записи плохенький, но, скорее всего, таким он и был изначально (похоже по звучанию на Металлику 1983 - такой же специфический саунд, как бы удаленно всё и плоско).
Ребята чуть отошли от корирования Slayer, благодаря более техничной игре соло-гитариста, но влияние американских грандов стиля проскакивает и здесь.
Релиз на крепкую четверочку.


Источник - torrents.ru

log
Отчёт EAC об извлечении, выполненном 7. июня 2009, 14:11 для диска:
Anihilated / The Ultimate Desecration

Дисковод: HL-DT-STDVDRAM GSA-H42N Adapter: 4 ID: 0
Режим чтения: Достоверный (C2: нет, Точный поток: да, Отключение кэша: да)
Коррекция смещения при чтении: 667
Способность читать области Lead-in и Lead-out : Нет

Выходной формат: Внутренние WAV-операции
44.100 Гц; 16 бит; стерео

Другие параметры:
Заполнение пропущенных сэмплов тишиной : Да
Удаление блоков с тишиной в начале и конце : Нет
Установленный внешний ASPI-интерфейс


Характеристики диапазона извлечения и сообщения об ошибках
Выбранный диапазон
Имя файла E:\EAC\Anihilated - The Ultimate Desecration.wav

Пиковый уровень 98.8 %
Качество диапазона 100.0 %
CRC F52C6B45
Копирование... OK

Ошибок не произошло

Конец отчёта


cue
REM GENRE "Thrash Metal"
REM DATE 2008
REM DISCID B50D590D
REM COMMENT "ExactAudioCopy v0.95b4"
PERFORMER "Anihilated"
TITLE "The Ultimate Desecration"
FILE "Anihilated - The Ultimate Desecration.flac" WAVE
TRACK 01 AUDIO
TITLE "Desolation"
PERFORMER "Anihilated"
ISRC BRTIQ0800073
INDEX 01 00:00:00
TRACK 02 AUDIO
TITLE "Into the Flames of Armageddon"
PERFORMER "Anihilated"
ISRC BRTIQ0800074
INDEX 00 02:37:42
INDEX 01 02:39:42
TRACK 03 AUDIO
TITLE "Skinned Alive"
PERFORMER "Anihilated"
ISRC BRTIQ0800075
INDEX 00 07:23:20
INDEX 01 07:25:20
TRACK 04 AUDIO
TITLE "Lost Souls"
PERFORMER "Anihilated"
ISRC BRTIQ0800076
INDEX 00 12:38:29
INDEX 01 12:40:29
TRACK 05 AUDIO
TITLE "Lethal Dose"
PERFORMER "Anihilated"
ISRC BRTIQ0800077
INDEX 00 17:07:27
INDEX 01 17:09:27
TRACK 06 AUDIO
TITLE "No Rest for the Wicked"
PERFORMER "Anihilated"
ISRC BRTIQ0800078
INDEX 00 21:20:44
INDEX 01 21:22:44
TRACK 07 AUDIO
TITLE "Internal Darkness"
PERFORMER "Anihilated"
ISRC BRTIQ0800079
INDEX 00 25:43:26
INDEX 01 25:45:26
TRACK 08 AUDIO
TITLE "Legacy of Hate"
PERFORMER "Anihilated"
ISRC BRTIQ0800080
INDEX 00 32:24:50
INDEX 01 32:26:50
TRACK 09 AUDIO
TITLE "Enter the Realm"
PERFORMER "Anihilated"
ISRC BRTIQ0800081
INDEX 00 36:31:68
INDEX 01 36:33:68
TRACK 10 AUDIO
TITLE "Exeunt"
PERFORMER "Anihilated"
ISRC BRTIQ0800082
INDEX 00 42:15:31
INDEX 01 42:17:31
TRACK 11 AUDIO
TITLE "Bloodsport [live]"
PERFORMER "Anihilated"
ISRC BRTIQ0800083
INDEX 01 43:39:05
TRACK 12 AUDIO
TITLE "Shattered [live]"
PERFORMER "Anihilated"
ISRC BRTIQ0800084
INDEX 01 47:33:60
TRACK 13 AUDIO
TITLE "No rest for the wicked [live]"
PERFORMER "Anihilated"
ISRC BRTIQ0800085
INDEX 01 52:25:52

_________________


Top
 Profile E-mail  
 
 
PostPosted: 27 Aug 2009 
Анатолий
User avatar
Joined: 18 Oct 2008
Posts: 3043
Lоcаtion: Армавир
Age: 41
Name: Анатолий
Согласен, может быть второй альбом получился и не таким весёлым как дебютник, однако положительные эмоции в себе несёт, что не может не радовать любителя стиля Thrash metal.

И опять таки, не обошлось в этом издании без ляпсуса. Между первым и вторым треками как бы случайно вклинилась пауза. Её там быть не должно, треки в оригинале идут слитно.


Top
 Profile E-mail  
 
 
PostPosted: 27 Aug 2009 
Хиппей (support team)
User avatar
Joined: 30 Jul 2007
Posts: 104561
Lоcаtion: Киев (Kyiv, UA)
Age: 45
Name: Andrey
Ну пауза такое дело, мне лично не резала слух.
И опять же, хочется услышать оригинальное издание альбома на CD...

_________________


Top
 Profile E-mail  
 
 
PostPosted: 27 Aug 2009 
Анатолий
User avatar
Joined: 18 Oct 2008
Posts: 3043
Lоcаtion: Армавир
Age: 41
Name: Анатолий
Scatterbrain wrote:
И опять же, хочется услышать оригинальное издание альбома на CD...


А было ли оно вообще?


Top
 Profile E-mail  
 
 
PostPosted: 27 Aug 2009 
Хиппей (support team)
User avatar
Joined: 30 Jul 2007
Posts: 104561
Lоcаtion: Киев (Kyiv, UA)
Age: 45
Name: Andrey
Privateer wrote:
А было ли оно вообще?

Ага, но не в 88-м, а спустя 10 лет на каком-то малоизвестном лэйбле.
MetalWorks видать только винилы штамповали.

_________________


Top
 Profile E-mail  
 
 
PostPosted: 28 Aug 2009 
Анатолий
User avatar
Joined: 18 Oct 2008
Posts: 3043
Lоcаtion: Армавир
Age: 41
Name: Анатолий
Scatterbrain wrote:
Ага, но не в 88-м, а спустя 10 лет на каком-то малоизвестном лэйбле.


Это само по себе уже говорит о многом... какой-то малоизвестный лэйбл... :fingal:


Top
 Profile E-mail  
 
 
PostPosted: 28 Aug 2009 
Хиппей (support team)
User avatar
Joined: 30 Jul 2007
Posts: 104561
Lоcаtion: Киев (Kyiv, UA)
Age: 45
Name: Andrey
Ха, лэйбл известный, а вот что (кто?) такое Ziggy Lentil, я так и не понял :fingal: Владелец Марки рекордз?

http://www.marquee.com.br/english/titul ... 0843182154

_________________


Top
 Profile E-mail  
 
 
PostPosted: 03 Sep 2009 
Хиппей (support team)
User avatar
Joined: 30 Jul 2007
Posts: 104561
Lоcаtion: Киев (Kyiv, UA)
Age: 45
Name: Andrey
Image

:shok: :shok: :shok: Охренеть. Я такого еще не видел. Обычно с этого форума файлы скачивают максимум 3-10 человек, а тут прям нашествие личерское. И это радует :true:

_________________


Top
 Profile E-mail  
 
 
PostPosted: 03 Sep 2009 
А может смените мне статус?..
Joined: 03 Jul 2009
Posts: 766
Lоcаtion: Serbia
Name: Laki
Thanks !!!


Top
 Profile E-mail  
 
 
PostPosted: 04 Sep 2009 
Анатолий
User avatar
Joined: 18 Oct 2008
Posts: 3043
Lоcаtion: Армавир
Age: 41
Name: Анатолий
Scatterbrain

Потому как альбомы то - хорошие!

Спасибо большое релизеру!


Top
 Profile E-mail  
 
 
PostPosted: 04 Sep 2009 
Хиппей (support team)
User avatar
Joined: 30 Jul 2007
Posts: 104561
Lоcаtion: Киев (Kyiv, UA)
Age: 45
Name: Andrey
Privateer wrote:
Потому как альбомы то - хорошие!

Угу, но всё равно очень неожиданно.
Это ж не новый альбом Метлы, Мегадета или Уды, например :vic:

_________________


Top
 Profile E-mail  
 
 
PostPosted: 04 Sep 2009 
Работнечег
User avatar
Joined: 28 Aug 2007
Posts: 5309
Lоcаtion: г. Москва
Age: 29
Name: Дима
Может просто кто-то ссылку на свой блог спёр, вот и всё. Потому что мне кажется сюда столько народу не заходит,не говоря уже о скачивании :umnik:


Top
 Profile E-mail  
 
 
PostPosted: 04 Sep 2009 
Хиппей (support team)
User avatar
Joined: 30 Jul 2007
Posts: 104561
Lоcаtion: Киев (Kyiv, UA)
Age: 45
Name: Andrey
church wrote:
Может просто кто-то ссылку на свой блог спёр, вот и всё

Дык именно, вот пробую найти где она засвечена...
Кста, на торсру только 63 раза скачали файл, на данный момент :vic:


Ага, вот более ранняя ссылка http://nnm.ru/blogs/rainbow37/anihilate ... ation_1989 , которая в гугле видна намного лучшей нашей (так как наша затэгована), значит кто-то точно скопепастел наш линк к себе на большой ресурс и там скрыл тэгами. Вот только всё равно не пойму, кому приспичило так много и часто качать по сути малоизвестную группу? :pardon: Хм, или мож это кто-то просто выставил качалку на риплей? :crazy:

_________________


Top
 Profile E-mail  
 
Display posts from previous:  Sort by  
Post new topic Reply to topic  [ 13 posts ] 

All times are UTC + 3 hours


Who is online

Users browsing this forum: No registered users and 5 guests


You cannot post new topics in this forum
You cannot reply to topics in this forum
You cannot edit your posts in this forum
You cannot delete your posts in this forum
You cannot post attachments in this forum

Search for:
Яндекс.Метрика
Powered by phpBB © 2000, 2002, 2005, 2007 phpBB Group