\m/ 80's metal \m/

Информационно-аналитический форум "80 см пыли" (In Search We Trust) "У нас никто никуда не спешит"
Железнодорожная биржа - RailAgent
It is currently 18 Aug 2018

All times are UTC + 3 hours

Spoiler
Chat - temporary registration for foreign users (please leave your application here)







Post new topic Reply to topic  [ 2 posts ] 
Author Message
 
PostPosted: 26 Aug 2009 
Хиппей (support team)
User avatar
Joined: 30 Jul 2007
Posts: 105661
Lоcаtion: Киев (Kyiv, UA)
Age: 45
Name: Andrey
Anihilated - 1986 - Path To Destruction [comp.] (reissued 2006) [flac]

    Image

Genre: Hardcore/Thrash/Crossover
Location: England
Format: flac+cue+log+scans
Size: 420 Mb


    Path to Destruction (EP) 1986

    1. Innocent Victims
    2. Anihilated
    3. Thunderflash
    4. Shadows of Fear

    Speedwell (demo) 1985

    5. 40 Dumb Amimals
    6. Ethiopia
    7. Thunderflash
    8. Inferno
    9. Shadows of Fear

    Live

    10. Thunderflash
    11. 40 Dumb Animals
    12. Ethiopia
    13. Anihilated

    TPT: 54:24

Mega
Narod

Источник: torrents.ru

Сборка первых записей группы, когда она еще наяривала приличный кроссовер. Звук, саунд, то есть, запись, естественно, та еще - гаражная, поэтому, что слушать лося, что мп-тря, без разницы.
Но материал очень понравился :true:


log
Отчёт EAC об извлечении, выполненном 7. июня 2009, 13:44 для диска:
Anihilated / Path To Destruction (reissue)

Дисковод: HL-DT-STDVDRAM GSA-H42N Adapter: 4 ID: 0
Режим чтения: Достоверный (C2: нет, Точный поток: да, Отключение кэша: да)
Коррекция смещения при чтении: 667
Способность читать области Lead-in и Lead-out : Нет

Выходной формат: Внутренние WAV-операции
44.100 Гц; 16 бит; стерео

Другие параметры:
Заполнение пропущенных сэмплов тишиной : Да
Удаление блоков с тишиной в начале и конце : Нет
Установленный внешний ASPI-интерфейс


Характеристики диапазона извлечения и сообщения об ошибках
Выбранный диапазон
Имя файла E:\EAC\Anihilated - Path To Destruction (reissue).wav

Пиковый уровень 100.0 %
Качество диапазона 100.0 %
CRC B1ED9648
Копирование... OK

Ошибок не произошло

Конец отчёта


cue
REM GENRE "Thrash Metal"
REM DATE 2006
REM DISCID BD0CC00D
REM COMMENT "ExactAudioCopy v0.95b4"
PERFORMER "Anihilated"
TITLE "Path To Destruction (reissue)"
FILE "Anihilated - Path To Destruction (reissue).flac" WAVE
TRACK 01 AUDIO
TITLE "Innocent Victims"
PERFORMER "Anihilated"
INDEX 01 00:00:00
TRACK 02 AUDIO
TITLE "Anihilated"
PERFORMER "Anihilated"
INDEX 01 05:25:07
TRACK 03 AUDIO
TITLE "Thunderflash"
PERFORMER "Anihilated"
INDEX 01 11:39:27
TRACK 04 AUDIO
TITLE "Shadows Of Fear"
PERFORMER "Anihilated"
INDEX 01 15:21:13
TRACK 05 AUDIO
TITLE "40 Dumb Animals (demo)"
PERFORMER "Anihilated"
INDEX 01 19:26:68
TRACK 06 AUDIO
TITLE "Ethiopia (demo)"
PERFORMER "Anihilated"
INDEX 01 23:01:24
TRACK 07 AUDIO
TITLE "Thunderflash (demo)"
PERFORMER "Anihilated"
INDEX 01 25:39:32
TRACK 08 AUDIO
TITLE "Inferno (demo)"
PERFORMER "Anihilated"
INDEX 01 29:43:10
TRACK 09 AUDIO
TITLE "Shadows Of Fear (demo)"
PERFORMER "Anihilated"
INDEX 01 33:44:54
TRACK 10 AUDIO
TITLE "Thunderflash (live)"
PERFORMER "Anihilated"
INDEX 01 37:21:46
TRACK 11 AUDIO
TITLE "40 Dumb Animals (live)"
PERFORMER "Anihilated"
INDEX 01 41:17:35
TRACK 12 AUDIO
TITLE "Ethiopia (live)"
PERFORMER "Anihilated"
INDEX 01 44:55:13
TRACK 13 AUDIO
TITLE "Anihilated (live)"
PERFORMER "Anihilated"
INDEX 01 47:54:65

_________________


Top
 Profile E-mail  
 
 
PostPosted: 03 Sep 2009 
А может смените мне статус?..
Joined: 03 Jul 2009
Posts: 776
Lоcаtion: Serbia
Name: Laki
Thanks


Top
 Profile E-mail  
 
Display posts from previous:  Sort by  
Post new topic Reply to topic  [ 2 posts ] 

All times are UTC + 3 hours


Who is online

Users browsing this forum: No registered users and 3 guests


You cannot post new topics in this forum
You cannot reply to topics in this forum
You cannot edit your posts in this forum
You cannot delete your posts in this forum
You cannot post attachments in this forum

Search for:
Яндекс.Метрика
Powered by phpBB © 2000, 2002, 2005, 2007 phpBB Group