\m/ 80's metal \m/

Информационно-аналитический форум "80 см пыли" (In Search We Trust) "У нас никто никуда не спешит"
Железнодорожная биржа - RailAgent
It is currently 19 Aug 2018

All times are UTC + 3 hours

Spoiler
Chat - temporary registration for foreign users (please leave your application here)







Post new topic Reply to topic  [ 2 posts ] 
Author Message
 
PostPosted: 25 Aug 2009 
Хиппей (support team)
User avatar
Joined: 30 Jul 2007
Posts: 105667
Lоcаtion: Киев (Kyiv, UA)
Age: 45
Name: Andrey
Angelo Perlepes' Mystery - 1999 - Tales...

    Image

Genre: Neoclassical Heavy Metal
Location: Greece
Format: flac+cue+log+scans
Size: 318 Mb


Line-up:
Chris Papadopoulos - Vocals
Angelo Perlepes - Guitars
Takis Avramopoulos - Bass
Labis Kastanas - Drums
John Raptis - Keys


    1. Prelude - 01:26
    2. Tales... Of The Unexpected - 04:00
    3. Lady Evil - 03:47
    4. (Feels Like) I've Done It Before - 04:41
    5. Worship The Night - 04:48
    6. The Hawk And The Wolf - 05:36
    7. Fools Overture - 01:31
    8. Witche's Cry - 03:59
    9. The Final Battle - 06:36
    10. Judgement Day - 04:11
    11. Woman Without Shadow (Concerto Mysterioso) - 04:02

    TPT: 44:03

Mega
Narod

Released by Exploded from MMT

Приятный, мелодичный и гитарно-виртозный хэви-мэтал :meloman:

log
EAC extraction logfile from 11. January 2009, 16:46 for CD
Angelo Perlepes' Mystery / Tales...

Used drive : HL-DT-STDVDRAM GH20NS10 Adapter: 0 ID: 1
Read mode : Secure with NO C2, accurate stream, disable cache
Read offset correction : 667
Overread into Lead-In and Lead-Out : No

Used output format : C:\Program Files\Exact Audio Copy\FLAC.EXE (User Defined Encoder)
32 kBit/s
Additional command line options : -6 -V %s

Other options :
Fill up missing offset samples with silence : Yes
Delete leading and trailing silent blocks : No
Native Win32 interface for Win NT & 2000


Range status and errors
Selected range
Filename M:\- EAC Temp\Angelo Perlepes' Mystery - Tales....flac.wav

Peak level 100.0 %
Range quality 100.0 %
CRC 7DC833B7
Copy OK

No errors occured

End of status report


cue
PERFORMER "Angelo Perlepes' Mystery"
TITLE "Tales..."
FILE "Angelo Perlepes' Mystery - Tales....flac" WAVE
TRACK 01 AUDIO
TITLE "Prelude"
PERFORMER "Angelo Perlepes' Mystery"
INDEX 01 00:00:00
TRACK 02 AUDIO
TITLE "Tales...Of The Unexpected"
PERFORMER "Angelo Perlepes' Mystery"
INDEX 01 01:26:42
TRACK 03 AUDIO
TITLE "Lady Evil"
PERFORMER "Angelo Perlepes' Mystery"
INDEX 01 05:27:10
TRACK 04 AUDIO
TITLE "(Feels Like) I've Done It Before"
PERFORMER "Angelo Perlepes' Mystery"
INDEX 01 09:14:53
TRACK 05 AUDIO
TITLE "Worship The Night"
PERFORMER "Angelo Perlepes' Mystery"
INDEX 01 13:56:42
TRACK 06 AUDIO
TITLE "The Hawk And The Wolf"
PERFORMER "Angelo Perlepes' Mystery"
INDEX 01 18:05:08
TRACK 07 AUDIO
TITLE "Fools Overture"
PERFORMER "Angelo Perlepes' Mystery"
INDEX 01 23:41:72
TRACK 08 AUDIO
TITLE "Witches Cry"
PERFORMER "Angelo Perlepes' Mystery"
INDEX 01 25:13:55
TRACK 09 AUDIO
TITLE "The Final Battle"
PERFORMER "Angelo Perlepes' Mystery"
INDEX 01 29:13:35
TRACK 10 AUDIO
TITLE "Judgement Day"
PERFORMER "Angelo Perlepes' Mystery"
INDEX 01 35:49:53
TRACK 11 AUDIO
TITLE "Woman Without Shadow (Concerto Mysterioso)"
PERFORMER "Angelo Perlepes' Mystery"
INDEX 01 40:00:73

_________________


Top
 Profile E-mail  
 
 
PostPosted: 25 Aug 2009 
хард н хэвщик (support team)
User avatar
Joined: 02 Jun 2008
Posts: 16880
Lоcаtion: Н.Новгород
Age: 31
Name: Артем
Андрюх, спасибо большое тебе :true:


Top
 Profile  
 
Display posts from previous:  Sort by  
Post new topic Reply to topic  [ 2 posts ] 

All times are UTC + 3 hours


Who is online

Users browsing this forum: No registered users and 3 guests


You cannot post new topics in this forum
You cannot reply to topics in this forum
You cannot edit your posts in this forum
You cannot delete your posts in this forum
You cannot post attachments in this forum

Search for:
Яндекс.Метрика
Powered by phpBB © 2000, 2002, 2005, 2007 phpBB Group