\m/ 80's metal \m/

Информационно-аналитический форум "80 см пыли" (In Search We Trust) "У нас никто никуда не спешит"
Железнодорожная биржа - RailAgent
It is currently 16 Aug 2018

All times are UTC + 3 hours

Spoiler
Chat - temporary registration for foreign users (please leave your application here)







Post new topic Reply to topic  [ 26 posts ]  Go to page Previous  1, 2
Author Message
 
PostPosted: 25 Jun 2009 
10cm
User avatar
Joined: 22 Jun 2009
Posts: 82
Lоcаtion: USSR
Age: 45
Name: Вадим
APE - Human Greed - 1992

Image

Жанр: Heavy Metal
Год выпуска диска: 1992
Производитель диска: USA
Аудио кодек: APE
Тип рипа: image+.cue+сканы
Битрейт аудио: lossless
Продолжительность: 00:46:46
Трэклист:
1. Hollywood Ape 5:31
2. Imitating Man 3:45
3. American 3:30
4. Food For Sharks 3:10
5. School Daze 3:07
6. Leftovers & Bones 4:12
7. Human Greed 4:07
8. Never Alike 6:14
9. Fully Erect 3:08
10. Fools Parade 5:41
11. Balls Out 3:23
12. Epilogue 1:00

Доп. информация:
Matthias Dieth - Guitars (ex-Gravestone,Sinner,UDO)
Chris Pfannschnidt - Drums
Emil Brando - Bass, Vocals
Andy Susemihl - Guitars (ex-UDO)
Peter Ojdyn - Background Vocals

Mega
Narod
FileShare
GettyFile
HotFile
NetLoad


Log:
Exact Audio Copy V0.99 prebeta 4 from 23. January 2008

Отчёт EAC об извлечении, выполненном 27. июня 2009, 11:19

APE / Human Greed

Дисковод: Optiarc DVD RW AD-5200A Adapter: 1 ID: 0

Режим чтения : Достоверность
Использование точного потока : Да
Отключение кэша аудио : Да
Использование указателей C2 : Нет

Коррекция смещения при чтении : 48
Способность читать области Lead-in и Lead-out : Нет
Заполнение пропущенных сэмплов тишиной : Да
Удаление блоков с тишиной в начале и конце : Нет
При вычислениях CRC использовались нулевые сэмплы : Да
Интерфейс : Установленный внешний ASPI-интерфейс

Выходной формат : Внутренние WAV-операции
Формат сэмплов : 44.100 Гц; 16 бит; стерео


TOC извлечённого CD

Трек | Старт | Длительность | Начальный сектор | Конечный сектор
---------------------------------------------------------------------
1 | 0:00.33 | 5:31.35 | 33 | 24892
2 | 5:31.68 | 3:45.12 | 24893 | 41779
3 | 9:17.05 | 3:30.25 | 41780 | 57554
4 | 12:47.30 | 3:10.43 | 57555 | 71847
5 | 15:57.73 | 3:07.32 | 71848 | 85904
6 | 19:05.30 | 4:12.13 | 85905 | 104817
7 | 23:17.43 | 4:07.25 | 104818 | 123367
8 | 27:24.68 | 6:13.57 | 123368 | 151399
9 | 33:38.50 | 3:07.73 | 151400 | 165497
10 | 36:46.48 | 5:42.25 | 165498 | 191172
11 | 42:28.73 | 3:22.57 | 191173 | 206379
12 | 45:51.55 | 1:00.40 | 206380 | 210919


Характеристики диапазона извлечения и сообщения об ошибках

Выбранный диапазон

Имя файла D:\APE - Human Greed.wav

Пиковый уровень 100.0 %
Качество диапазона 99.9 %
CRC копии 06D52442
Копирование... OK

Ошибок не произошло
Конец отчёта

Спектр
Image


Last edited by Hoffmann on 27 Jun 2009, edited 7 times in total.

Top
 Profile E-mail  
 
 
PostPosted: 30 Jun 2009 
Пионэръ
User avatar
Joined: 23 Apr 2009
Posts: 25
Lоcаtion: Украина
Age: 44
Name: Анатолий
Hoffmann
:thanx:


Top
 Profile E-mail  
 
 
PostPosted: 04 Jul 2009 
Прокъмитолист
User avatar
Joined: 12 Aug 2007
Posts: 6445
Lоcаtion: Санктъ-Петербуркъ
Age: 50
Name: Олекъ
и от меня спасибо! :thanx:

_________________
прокъметол - это музыко, от которово есть прок (ы)


Top
 Profile  
 
 
PostPosted: 04 Jul 2009 
Труъ
User avatar
Joined: 15 Dec 2008
Posts: 131
Lоcаtion: Донбасс
Age: 45
Name: Евгений
Спасибо! И я послушаю.


Top
 Profile  
 
 
PostPosted: 04 Jul 2009 
хард н хэвщик (support team)
User avatar
Joined: 02 Jun 2008
Posts: 16880
Lоcаtion: Н.Новгород
Age: 31
Name: Артем
так, ну вот вроде последний лосевод наконец-таки подтянулся. :dance:


Top
 Profile  
 
 
PostPosted: 29 Jul 2009 
А может смените мне статус?..
Joined: 03 Jul 2009
Posts: 776
Lоcаtion: Serbia
Name: Laki
Great post. Thanks!!


Top
 Profile E-mail  
 
 
PostPosted: 20 Aug 2009 
хард н хэвщик (support team)
User avatar
Joined: 02 Jun 2008
Posts: 16880
Lоcаtion: Н.Новгород
Age: 31
Name: Артем
ironbaback wrote:
может кто подкинет скан задника?

кстати, скана задничка здесь так и не появилось :oops:


Top
 Profile  
 
Display posts from previous:  Sort by  
Post new topic Reply to topic  [ 26 posts ]  Go to page Previous  1, 2

All times are UTC + 3 hours


Who is online

Users browsing this forum: No registered users and 1 guest


You cannot post new topics in this forum
You cannot reply to topics in this forum
You cannot edit your posts in this forum
You cannot delete your posts in this forum
You cannot post attachments in this forum

Search for:
Яндекс.Метрика
Powered by phpBB © 2000, 2002, 2005, 2007 phpBB Group