\m/ 80's metal \m/

Информационно-аналитический форум "80 см пыли" (In Search We Trust) "У нас никто никуда не спешит"
Me For You - http://me-4u.com
It is currently 20 Oct 2019

All times are UTC + 3 hours

Spoiler
Chat - temporary registration for foreign users (please leave your application here)







Post new topic Reply to topic  [ 4 posts ] 
Author Message
 
PostPosted: 12 Jun 2009 
Хиппей (support team)
User avatar
Joined: 30 Jul 2007
Posts: 114953
Lоcаtion: Киев (Kyiv, UA)
Age: 46
Name: Andrey
Anthem - 2007 - Core (comp.)

    Image

Genre: Heavy Metal
Location: Japan
Format: wv+cue+log+scans
Size: 695 Mb


    1. Grieve Of Heart - 04:14
    2. XTC - 04:35
    3. The Man With No Name - 04:47
    4. Running Blood - 05:39
    5. The Voices - 03:48
    6. Demon's Ride - 04:27
    7. Rescue You - 04:07
    8. Lady Jane - 04:24
    9. Onslaught - 04:07
    10. Eternal Warrior - 05:12
    11. Life Goes On - 06:01
    12. Omega Man - 04:07
    13. Immortal Blind - 04:32
    14. Soul Motor - 03:35
    15. The Beginning - 04:06
    16. Echoes In The Dark - 05:17
    17. Gypsy Ways (Win, Lose, Or Draw) (English Version) - 05:48

    TPT: 01:18:46

Mega
Narod

Очередной сборничек от группы, на этот раз более массивный.
К нему еще прилагается видео-ДВД диск, так что кому он вдруг пригодится, маякнит, залью.
ps. Внутри сканы в формате *.jp2 :vic:


Released by SHI from MMT

log
Exact Audio Copy V0.99 prebeta 4 from 23. January 2008

EAC extraction logfile from 31. May 2009, 11:40

Anthem / Core

Used drive : MATSHITADVD-ROM SR-8588 Adapter: 1 ID: 1

Read mode : Secure
Utilize accurate stream : Yes
Defeat audio cache : Yes
Make use of C2 pointers : No

Read offset correction : 103
Overread into Lead-In and Lead-Out : No
Fill up missing offset samples with silence : Yes
Delete leading and trailing silent blocks : No
Null samples used in CRC calculations : Yes
Used interface : Installed external ASPI interface

Used output format : Internal WAV Routines
Sample format : 44.100 Hz; 16 Bit; Stereo


TOC of the extracted CD

Track | Start | Length | Start sector | End sector
---------------------------------------------------------
1 | 0:00.00 | 4:13.65 | 0 | 19039
2 | 4:13.65 | 4:34.65 | 19040 | 39654
3 | 8:48.55 | 4:47.10 | 39655 | 61189
4 | 13:35.65 | 5:38.45 | 61190 | 86584
5 | 19:14.35 | 3:47.50 | 86585 | 103659
6 | 23:02.10 | 4:26.40 | 103660 | 123649
7 | 27:28.50 | 4:06.55 | 123650 | 142154
8 | 31:35.30 | 4:23.50 | 142155 | 161929
9 | 35:59.05 | 5:12.30 | 161930 | 185359
10 | 41:11.35 | 5:06.45 | 185360 | 208354
11 | 46:18.05 | 6:01.15 | 208355 | 235444
12 | 52:19.20 | 4:06.55 | 235445 | 253949
13 | 56:26.00 | 4:32.10 | 253950 | 274359
14 | 60:58.10 | 3:34.45 | 274360 | 290454
15 | 64:32.55 | 4:05.60 | 290455 | 308889
16 | 68:38.40 | 5:16.70 | 308890 | 332659
17 | 73:55.35 | 5:47.42 | 332660 | 358726


Range status and errors

Selected range

Filename C:\EAC\VICP63831\Anthem - Core.wav

Peak level 100.0 %
Range quality 100.0 %
Test CRC E258764C
Copy CRC E258764C
Copy OK

No errors occurred


AccurateRip summary

Track 1 accurately ripped (confidence 1) [08ECC619]
Track 2 accurately ripped (confidence 1) [791218E6]
Track 3 accurately ripped (confidence 1) [2146EE3A]
Track 4 accurately ripped (confidence 1) [494DB944]
Track 5 accurately ripped (confidence 1) [58D78461]
Track 6 accurately ripped (confidence 1) [1A1A1CAF]
Track 7 accurately ripped (confidence 1) [E54D43B2]
Track 8 accurately ripped (confidence 1) [47FC53C4]
Track 9 accurately ripped (confidence 1) [544C8F2C]
Track 10 accurately ripped (confidence 1) [68FEA1AA]
Track 11 accurately ripped (confidence 1) [6EBDD9D1]
Track 12 accurately ripped (confidence 1) [511921CF]
Track 13 accurately ripped (confidence 1) [CA1E3418]
Track 14 accurately ripped (confidence 1) [483DA60D]
Track 15 accurately ripped (confidence 1) [F5EBCDC0]
Track 16 accurately ripped (confidence 1) [E22E5505]
Track 17 accurately ripped (confidence 1) [51986589]

All tracks accurately ripped

End of status report

spectrum
Image

_________________


Top
 Profile E-mail  
 
 
PostPosted: 12 Jun 2009 
Хиппей (support team)
User avatar
Joined: 30 Jul 2007
Posts: 114953
Lоcаtion: Киев (Kyiv, UA)
Age: 46
Name: Andrey
Scatterbrain wrote:
ps. Внутри сканы в формате *.jp2

Переконвертил в *.bmp :oops:
Так что если кому нужен архив со сканами (200 метров, маякните) :crazy:

_________________


Top
 Profile E-mail  
 
 
PostPosted: 28 Dec 2010 
Зарегился вот...
User avatar
Joined: 28 Jun 2010
Posts: 4
Lоcаtion: Казань
Name: Руслан
Спасибо, заберу послушать. :thanx:


Top
 Profile E-mail  
 
 
PostPosted: 02 Jan 2011 
Хиппей (support team)
User avatar
Joined: 30 Jul 2007
Posts: 114953
Lоcаtion: Киев (Kyiv, UA)
Age: 46
Name: Andrey
Фуф, хоть кто-то скачал за полтора года :true:
А ведь просил залить всё это конкретный человек с форума...

_________________


Top
 Profile E-mail  
 
Display posts from previous:  Sort by  
Post new topic Reply to topic  [ 4 posts ] 

All times are UTC + 3 hours


Who is online

Users browsing this forum: No registered users and 1 guest


You cannot post new topics in this forum
You cannot reply to topics in this forum
You cannot edit your posts in this forum
You cannot delete your posts in this forum
You cannot post attachments in this forum

Search for:
Яндекс.Метрика
Powered by phpBB © 2000, 2002, 2005, 2007 phpBB Group