\m/ 80's metal \m/

Информационно-аналитический форум "80 см пыли" (In Search We Trust) "У нас никто никуда не спешит"
Me For You - http://me-4u.com
It is currently 22 Oct 2019

All times are UTC + 3 hours

Spoiler
Chat - temporary registration for foreign users (please leave your application here)







Post new topic Reply to topic  [ 23 posts ]  Go to page 1, 2  Next
Author Message
 
PostPosted: 02 Jun 2009 
Хиппей (support team)
User avatar
Joined: 30 Jul 2007
Posts: 115005
Lоcаtion: Киев (Kyiv, UA)
Age: 46
Name: Andrey
Adrian - 1989 - One Step Into The Uncertain

Image

Line-up:
Vocals : Oliver Wende
Guitars : Haye Graf
Guitars : Oliver Wende
Bass : Torsten Lindhorst
Drums : Jens Brandl
Keyboards : Marcus Böhringer

    1. Reach the Sun - 06:11
    2. The King Is Born Again - 04:27
    3. Love Dies in a Painful Way - 04:46
    4. The White Death - 03:30
    5. Prelude - 01:16
    6. Never Again - 05:26
    7. South Africa - 06:48
    8. Dreamer - 04:52

    TPT: 37:16

Не знаю, кто такой Адриан, но явно хиппарь какой-то былинный. Вон на картинке стоит в воде и даже джонсы и маузер не промокли.
По музыке это обычный среднетемповой тевтонский хэви иногда переходящий в чисто американский пауэр. Хм, да еще и с клавишными. Правда я их так и не расслышал через колонки...
Хит на диске - песенка "Белая смерть".
Да, соль она такая, вредная полезная ископаемая.


Добавлено: Пт Мар 23, 2007 01:04

_________________


Top
 Profile E-mail  
 
 
PostPosted: 02 Jun 2009 
Power Metal Maniac
User avatar
Joined: 09 Aug 2008
Posts: 6929
Lоcаtion: Москва
Age: 41
Name: Егор
Слушал летом 2008. В общем понравилось. Сейчас легко вспомнил припев к Reach the Sun.

_________________
Long Live Metal!


Top
 Profile  
 
 
PostPosted: 14 Apr 2015 
10cm
User avatar
Joined: 16 Apr 2010
Posts: 75
Lоcаtion: CZ
Age: 56
Name: komik363
my rip (flac + all scans 300dpi)

https://yadi.sk/d/icm9PhfQfxCkJ

.


Top
 Profile E-mail  
 
 
PostPosted: 14 Apr 2015 
Рарник и трушник
User avatar
Joined: 25 Dec 2009
Posts: 8795
Lоcаtion: Москва
Age: 54
Name: Виталий
komik363, спасибо!!! :thanx:

Давно хотел хороший рип, а то винила так и нет. :pardon: :dance:


Top
 Profile  
 
 
PostPosted: 14 Apr 2015 
Хиппей (support team)
User avatar
Joined: 30 Jul 2007
Posts: 115005
Lоcаtion: Киев (Kyiv, UA)
Age: 46
Name: Andrey
Это только у меня возникает желание сначала смерть человека убить, а затем оживить? :lloo:

_________________


Top
 Profile E-mail  
 
 
PostPosted: 14 Apr 2015 
Рарник и трушник
User avatar
Joined: 25 Dec 2009
Posts: 8795
Lоcаtion: Москва
Age: 54
Name: Виталий
Да, тока заметил, в "оборзении" ссылка на лося... тяжело... с чехами... :pardon:


Top
 Profile  
 
 
PostPosted: 14 Apr 2015 
консэрваторъ
User avatar
Joined: 11 Aug 2007
Posts: 17320
Lоcаtion: Псков
Age: 45
Name: Сергей
Беспредел... :dash:

_________________
THRASH 'EM ALL


Top
 Profile E-mail  
 
 
PostPosted: 14 Apr 2015 
Доктор энтомологии
User avatar
Joined: 22 Jan 2009
Posts: 9927
Lоcаtion: Даугавпилс
Age: 44
Name: Алексей
:thanx:


Top
 Profile  
 
 
PostPosted: 15 Apr 2015 
Хиппей (support team)
User avatar
Joined: 30 Jul 2007
Posts: 115005
Lоcаtion: Киев (Kyiv, UA)
Age: 46
Name: Andrey
my rip (flac + all scans 300dpi)

https://yadi.sk/d/icm9PhfQfxCkJ

.

:thanx:

Image
Image
Image
Image Image Image Image


mirror: iFolder l Narod l M-Cloud

log
Exact Audio Copy V1.0 beta 1 from 15. November 2010

EAC extraction logfile from 28. March 2015, 18:28

Adrian (ger) / One Step Into The Uncertain

Used drive : hp DVD-RAM UJ8B1 Adapter: 0 ID: 1

Read mode : Secure
Utilize accurate stream : Yes
Defeat audio cache : Yes
Make use of C2 pointers : No

Read offset correction : 6
Overread into Lead-In and Lead-Out : Yes
Fill up missing offset samples with silence : Yes
Delete leading and trailing silent blocks : No
Null samples used in CRC calculations : Yes
Used interface : Native Win32 interface for Win NT & 2000

Used output format : User Defined Encoder
Selected bitrate : 128 kBit/s
Quality : High
Add ID3 tag : No
Command line compressor : C:\Program Files\Exact Audio Copy\Flac\flac.exe
Additional command line options : -V -8 -T "artist=%a" -T "title=%t" -T "album=%g" -T "date=%y" -T "tracknumber=%n" -T "genre=%m" %s


TOC of the extracted CD

Track | Start | Length | Start sector | End sector
---------------------------------------------------------
1 | 0:00.00 | 6:17.22 | 0 | 28296
2 | 6:17.22 | 4:33.25 | 28297 | 48796
3 | 10:50.47 | 4:51.51 | 48797 | 70672
4 | 15:42.23 | 3:34.41 | 70673 | 86763
5 | 19:16.64 | 1:19.12 | 86764 | 92700
6 | 20:36.01 | 5:30.21 | 92701 | 117471
7 | 26:06.22 | 6:56.74 | 117472 | 148745
8 | 33:03.21 | 5:00.12 | 148746 | 171257
9 | 38:03.33 | 8:27.24 | 171258 | 209306


Range status and errors

Selected range

Filename C:\aavypal\uploads\Adrian (ger) - One Step Into The Uncertain.wav

Peak level 100.0 %
Extraction speed 0.3 X
Range quality 100.0 %
Copy CRC 22CEAA75
Copy OK

No errors occurred


AccurateRip summary

Track 1 not present in database
Track 2 not present in database
Track 3 not present in database
Track 4 not present in database
Track 5 not present in database
Track 6 not present in database
Track 7 not present in database
Track 8 not present in database
Track 9 not present in database

None of the tracks are present in the AccurateRip database

End of status report

==== Log checksum A65E8E32B9256DC8B3644F9560EAE56E0A40239AEF739C42E44CA52A9A5541BE ====

cue
REM GENRE "Heavy Metal"
REM DATE 1987
REM DISCID 8C0AE609
REM COMMENT "ExactAudioCopy v1.0b1"
PERFORMER "Adrian (ger)"
TITLE "One Step Into The Uncertain"
FILE "Adrian (ger) - One Step Into The Uncertain.flac" WAVE
TRACK 01 AUDIO
TITLE "Reach The Sun"
PERFORMER "Adrian (ger)"
FLAGS DCP
INDEX 01 00:00:00
TRACK 02 AUDIO
TITLE "The King Is Born Again"
PERFORMER "Adrian (ger)"
FLAGS DCP
INDEX 01 06:17:22
TRACK 03 AUDIO
TITLE "Love Dies In A Painful Way"
PERFORMER "Adrian (ger)"
FLAGS DCP
INDEX 01 10:50:47
TRACK 04 AUDIO
TITLE "The White Death"
PERFORMER "Adrian (ger)"
FLAGS DCP
INDEX 01 15:42:23
TRACK 05 AUDIO
TITLE "Prelude"
PERFORMER "Adrian (ger)"
FLAGS DCP
INDEX 01 19:16:64
TRACK 06 AUDIO
TITLE "Never Again"
PERFORMER "Adrian (ger)"
FLAGS DCP
INDEX 01 20:36:01
TRACK 07 AUDIO
TITLE "South Africa"
PERFORMER "Adrian (ger)"
FLAGS DCP
INDEX 01 26:06:22
TRACK 08 AUDIO
TITLE "Dreamer"
PERFORMER "Adrian (ger)"
FLAGS DCP
INDEX 01 33:03:21
TRACK 09 AUDIO
TITLE "Rainbow Warrior [*]"
PERFORMER "Adrian (ger)"
FLAGS DCP
INDEX 01 38:03:33

_________________


Top
 Profile E-mail  
 
 
PostPosted: 15 Apr 2015 
Хиппей (support team)
User avatar
Joined: 30 Jul 2007
Posts: 115005
Lоcаtion: Киев (Kyiv, UA)
Age: 46
Name: Andrey
Отслушал ещё раз альбом. Средненько :pardon:

4+/10

зы. Топик переносится в лосевые анонсы.

_________________


Top
 Profile E-mail  
 
 
PostPosted: 15 Apr 2015 
Power Metal Maniac
User avatar
Joined: 09 Aug 2008
Posts: 6929
Lоcаtion: Москва
Age: 41
Name: Егор
Хороший альбом, зря вы так

_________________
Long Live Metal!


Top
 Profile  
 
 
PostPosted: 15 Apr 2015 
Хиппей (support team)
User avatar
Joined: 30 Jul 2007
Posts: 115005
Lоcаtion: Киев (Kyiv, UA)
Age: 46
Name: Andrey
Чуть лучше Стормвича 85, да? :dance:
Хитов здесь хоть есть аж 3-4 штуки :lob:

_________________


Top
 Profile E-mail  
 
 
PostPosted: 15 Apr 2015 
Генеральный thrasher
User avatar
Joined: 03 Oct 2008
Posts: 3741
Lоcаtion: Ханты-Мансийский АО
Age: 44
Name: Сергей
По моему отстой полный... :(


Top
 Profile  
 
 
PostPosted: 15 Apr 2015 
Я набрал 1000 сообщений!
Joined: 21 Nov 2009
Posts: 1415
Lоcаtion: praga
Age: 49
Name: Сергей
По моему отстой полный... :(

Точно,лучше и не скажешь.


Top
 Profile E-mail  
 
 
PostPosted: 16 Apr 2015 
Хиппей (support team)
User avatar
Joined: 30 Jul 2007
Posts: 115005
Lоcаtion: Киев (Kyiv, UA)
Age: 46
Name: Andrey
Всё больше и больше нравится альбом :meloman:

_________________


Top
 Profile E-mail  
 
 
PostPosted: 16 Apr 2015 
Рарник и трушник
User avatar
Joined: 25 Dec 2009
Posts: 8795
Lоcаtion: Москва
Age: 54
Name: Виталий
Да, вот точно, альбом-то отличный, но Картага со своим голимым звуком... :oops:
И вот удивительно, у меня никогда не было этого альбома, мистика какая-то... :crazy: Бум искать. :true:


Top
 Profile  
 
 
PostPosted: 16 Apr 2015 
Доктор энтомологии
User avatar
Joined: 22 Jan 2009
Posts: 9927
Lоcаtion: Даугавпилс
Age: 44
Name: Алексей
...интересно на обожке там сбоку кучка нарезанных огурцов лежит или бузы (манты) ?


Top
 Profile  
 
 
PostPosted: 16 Apr 2015 
Рарник и трушник
User avatar
Joined: 25 Dec 2009
Posts: 8795
Lоcаtion: Москва
Age: 54
Name: Виталий
Паучьи манты...э..э..мошонка..э..э..хинкали..э..э..яйца. :vic:

Ниччо се! Грек рулит! 222 еврейских.
http://www.discogs.com/sell/release/5890165?ev=rb
и на еБей ещё круче - 358,18 еврейских. :shok:


Top
 Profile  
 
 
PostPosted: 16 Apr 2015 
Хиппей (support team)
User avatar
Joined: 30 Jul 2007
Posts: 115005
Lоcаtion: Киев (Kyiv, UA)
Age: 46
Name: Andrey
Да ну его, тот винил. Всё равно альбом на мобилке слушается нормально :meloman:

_________________


Top
 Profile E-mail  
 
 
PostPosted: 16 Apr 2015 
Рарник и трушник
User avatar
Joined: 25 Dec 2009
Posts: 8795
Lоcаtion: Москва
Age: 54
Name: Виталий
Scatterbrain wrote:
Всё равно альбом на мобилке слушается нормально

А вот на цивильном - нет. :pardon:


Top
 Profile  
 
Display posts from previous:  Sort by  
Post new topic Reply to topic  [ 23 posts ]  Go to page 1, 2  Next

All times are UTC + 3 hours


Who is online

Users browsing this forum: No registered users and 2 guests


You cannot post new topics in this forum
You cannot reply to topics in this forum
You cannot edit your posts in this forum
You cannot delete your posts in this forum
You cannot post attachments in this forum

Search for:
Яндекс.Метрика
Powered by phpBB © 2000, 2002, 2005, 2007 phpBB Group