\m/ 80's metal \m/

Информационно-аналитический форум "80 см пыли" (In Search We Trust) "У нас никто никуда не спешит"
Me For You - http://me-4u.com
It is currently 22 Oct 2018

All times are UTC + 3 hours

Spoiler
Chat - temporary registration for foreign users (please leave your application here)







Post new topic Reply to topic  [ 5 posts ] 
Author Message
 
PostPosted: 31 May 2009 
Хиппей (support team)
User avatar
Joined: 30 Jul 2007
Posts: 107101
Lоcаtion: Киев (Kyiv, UA)
Age: 45
Name: Andrey
Anthem - 2008 - Heat Of The Night (single)

    Image

Genre: Heavy Metal
Location: Japan
Format: flac+cue+log+scans
Size: 121 Mb


    1. Heat of the Night - 04:07
    2. Awake - 04:57
    3. I Don't Care - 04:23

    TPT: 13:27

Mega
Narod

log
Exact Audio Copy V0.99 prebeta 3 from 28. July 2007

EAC extraction logfile from 25. December 2008, 18:19

Anthem / Heat Of The Night

Used drive : LITE-ON DVDRW SHM-165P6S Adapter: 1 ID: 1

Read mode : Secure
Utilize accurate stream : Yes
Defeat audio cache : Yes
Make use of C2 pointers : No

Read offset correction : 6
Overread into Lead-In and Lead-Out : No
Fill up missing offset samples with silence : Yes
Delete leading and trailing silent blocks : No
Null samples used in CRC calculations : Yes
Used interface : Installed external ASPI interface

Used output format : Internal WAV Routines
Sample format : 44.100 Hz; 16 Bit; Stereo


TOC of the extracted CD

Track | Start | Length | Start sector | End sector
---------------------------------------------------------
1 | 0:00.00 | 4:06.55 | 0 | 18504
2 | 4:06.55 | 4:56.50 | 18505 | 40754
3 | 9:03.30 | 4:23.00 | 40755 | 60479


Range status and errors

Selected range

Filename J:\MMT\Anthem - Heat Of The Night.wav

Peak level 99.0 %
Range quality 100.0 %
Test CRC 3E8B9A85
Copy CRC 3E8B9A85
Copy OK

No errors occurred


AccurateRip summary

Track 1 not present in database
Track 2 not present in database
Track 3 not present in database

None of the tracks are present in the AccurateRip database

End of status report

spectrum
Image

_________________


Top
 Profile E-mail  
 
 
PostPosted: 31 May 2009 
хард н хэвщик (support team)
User avatar
Joined: 02 Jun 2008
Posts: 16880
Lоcаtion: Н.Новгород
Age: 31
Name: Артем
Забыл написать, что спер альбом с ММТ :oops:


Top
 Profile  
 
 
PostPosted: 31 May 2009 
Хиппей (support team)
User avatar
Joined: 30 Jul 2007
Posts: 107101
Lоcаtion: Киев (Kyiv, UA)
Age: 45
Name: Andrey
А на этот раз не оттуда :crazy:

_________________


Top
 Profile E-mail  
 
 
PostPosted: 31 May 2009 
Прокъмитолист
User avatar
Joined: 12 Aug 2007
Posts: 6490
Lоcаtion: Санктъ-Петербуркъ
Age: 51
Name: Олекъ
Scatterbrain wrote:
А на этот раз не оттуда

но рип-то все равно от frafra :no onan:

_________________
прокъметол - это музыко, от которово есть прок (ы)


Top
 Profile  
 
 
PostPosted: 31 May 2009 
Хиппей (support team)
User avatar
Joined: 30 Jul 2007
Posts: 107101
Lоcаtion: Киев (Kyiv, UA)
Age: 45
Name: Andrey
Да-да, даже от frafra64 :thanx:

_________________


Top
 Profile E-mail  
 
Display posts from previous:  Sort by  
Post new topic Reply to topic  [ 5 posts ] 

All times are UTC + 3 hours


Who is online

Users browsing this forum: No registered users and 2 guests


You cannot post new topics in this forum
You cannot reply to topics in this forum
You cannot edit your posts in this forum
You cannot delete your posts in this forum
You cannot post attachments in this forum

Search for:
Яндекс.Метрика
Powered by phpBB © 2000, 2002, 2005, 2007 phpBB Group