\m/ 80's metal \m/

Информационно-аналитический форум "80 см пыли" (In Search We Trust) "У нас никто никуда не спешит"
Me For You - http://me-4u.com
It is currently 17 Oct 2019

All times are UTC + 3 hours

Spoiler
Chat - temporary registration for foreign users (please leave your application here)







Post new topic Reply to topic  [ 33 posts ]  Go to page Previous  1, 2
Author Message
 
PostPosted: 23 Apr 2014 
Персональный статус
User avatar
Joined: 29 Jan 2009
Posts: 265
Lоcаtion: Таллин, Эстония.
Age: 32
Name: Роман Юрич
Band / Название Группы: Asphyxia
Album title / Название Альбома : Exit : Reality
Year / Год Выпуска : 1991
Genre / Жанр: Thrash Metal
Country / Страна : Belgium
Edition / Издание : CD

Image

Track list / Список Песен

01. 05:08 Capital Punishment
02. 03:51 Violence First
03. 04:09 Slice Of Death
04. 06:14 Health For Sale
05. 03:46 Paranoia Time
06. 04:14 The One Who Minds The Worm
07. 04:36 One Big Family
08. 04:08 Where Shadows Are Dark
09. 03:18 Mr. Pain (Bonus Track)
10. 04:35 No Thanks


Technical info / Технические данные .

Source / Источник : CD-DA
Format / Формат : WavPack, Lossless Very High Compression, -hh -x6
Resolution / Разрешение : 44 100 Hz
Bit Depth / Битовая Глубина : 16 bits
Total playing time / Суммарное время проигрывания : 43:59
Album art / Полиграфия: Front cover, Back cover, Booklet, CD / Передняя обложка, Задняя обложка, Буклет, CD

Comment / Комментарий
The covers were scanned at 300 DPI then resized. The front cover was scanned at 600 DPI then resized. Обложки были отсканированны с разрешением в 300 DPI, после чего они были уменьшены в размере. Главная обложка была отсканированна с разрешением в 600 DPI, после чего она была уменьшенна в размере.

Links / Ссылки

DropBox Lossless

DropBox MP3 320

EAC Log
Code:
Exact Audio Copy V1.0 beta 3 from 29. August 2011

EAC extraction logfile from 22. April 2014, 22:46

Asphyxia / Exit : Reality

Used drive  : PLEXTOR DVDR   PX-891SA   Adapter: 0  ID: 0

Read mode               : Secure
Utilize accurate stream : Yes
Defeat audio cache      : Yes
Make use of C2 pointers : Yes

Read offset correction                      : 6
Overread into Lead-In and Lead-Out          : No
Fill up missing offset samples with silence : Yes
Delete leading and trailing silent blocks   : No
Null samples used in CRC calculations       : Yes
Used interface                              : Native Win32 interface for Win NT & 2000

Used output format : Internal WAV Routines
Sample format      : 44.100 Hz; 16 Bit; Stereo


TOC of the extracted CD

     Track |   Start  |  Length  | Start sector | End sector
    ---------------------------------------------------------
        1  |  0:00.32 |  5:07.65 |        32    |    23121   
        2  |  5:08.22 |  3:51.28 |     23122    |    40474   
        3  |  8:59.50 |  4:09.20 |     40475    |    59169   
        4  | 13:08.70 |  6:14.27 |     59170    |    87246   
        5  | 19:23.22 |  3:46.13 |     87247    |   104209   
        6  | 23:09.35 |  4:13.40 |    104210    |   123224   
        7  | 27:23.00 |  4:35.60 |    123225    |   143909   
        8  | 31:58.60 |  4:07.47 |    143910    |   162481   
        9  | 36:06.32 |  3:18.03 |    162482    |   177334   
       10  | 39:24.35 |  4:35.02 |    177335    |   197961   


Range status and errors

Selected range

     Filename D:\Audio\Vinyl ; CD ; Tape Rips\# Lossless Temp\Asphyxia (1991) - Exit Reality [WV]\Asphyxia (1991) - Exit ; Reality.wav

     Peak level 100.0 %
     Extraction speed 4.3 X
     Range quality 99.9 %
     Test CRC C2B96CAF
     Copy CRC C2B96CAF
     Copy OK

No errors occurred


AccurateRip summary

Track  1  accurately ripped (confidence 1)  [0075AF3D]  (AR v2)
Track  2  accurately ripped (confidence 1)  [64FF53D7]  (AR v2)
Track  3  accurately ripped (confidence 1)  [C7A5B520]  (AR v2)
Track  4  accurately ripped (confidence 1)  [0E54358B]  (AR v2)
Track  5  accurately ripped (confidence 1)  [DCFFD55F]  (AR v2)
Track  6  accurately ripped (confidence 1)  [3D14A833]  (AR v2)
Track  7  accurately ripped (confidence 1)  [04FAAD8D]  (AR v2)
Track  8  accurately ripped (confidence 1)  [20B3829A]  (AR v2)
Track  9  accurately ripped (confidence 1)  [6927CFC1]  (AR v2)
Track 10  accurately ripped (confidence 1)  [936054A0]  (AR v2)

All tracks accurately ripped

End of status report

---- CUETools DB Plugin V2.1.3

[CTDB TOCID: SsVE4zECmQ5Vsr8CE9USsIfyE2w-] found, Submit result: discs with pregaps not supported in this protocol version
[02fee79b] (1/1) Differs in 17640 samples @00:00:15-00:00:45
You can use CUETools to repair this rip.


==== Log checksum 2991A436CE1C1949EED92B846905B65252C28CC188A1EA7FC6E6DCBF85BD75A7 ====


CUE Sheet
Code:
REM GENRE "Thrash Metal"
REM DATE 1991
REM DISCID 790A4F0A
REM COMMENT "ExactAudioCopy v1.0b3"
PERFORMER "Asphyxia"
TITLE "Exit : Reality"
FILE "Asphyxia (1991) - Exit ; Reality - WV.wv" WAVE
  TRACK 01 AUDIO
    TITLE "Capital Punishment"
    PERFORMER "Asphyxia"
    INDEX 00 00:00:00
    INDEX 01 00:00:32
  TRACK 02 AUDIO
    TITLE "Violence First"
    PERFORMER "Asphyxia"
    INDEX 00 05:07:73
    INDEX 01 05:08:22
  TRACK 03 AUDIO
    TITLE "Slice Of Death"
    PERFORMER "Asphyxia"
    INDEX 00 08:59:35
    INDEX 01 08:59:50
  TRACK 04 AUDIO
    TITLE "Health For Sale"
    PERFORMER "Asphyxia"
    INDEX 00 13:08:53
    INDEX 01 13:08:70
  TRACK 05 AUDIO
    TITLE "Paranoia Time"
    PERFORMER "Asphyxia"
    INDEX 00 19:23:20
    INDEX 01 19:23:22
  TRACK 06 AUDIO
    TITLE "The One Who Minds The Worm"
    PERFORMER "Asphyxia"
    INDEX 00 23:08:70
    INDEX 01 23:09:35
  TRACK 07 AUDIO
    TITLE "One Big Family"
    PERFORMER "Asphyxia"
    INDEX 00 27:22:50
    INDEX 01 27:23:00
  TRACK 08 AUDIO
    TITLE "Where Shadows Are Dark"
    PERFORMER "Asphyxia"
    INDEX 00 31:58:50
    INDEX 01 31:58:60
  TRACK 09 AUDIO
    TITLE "Mr. Pain"
    PERFORMER "Asphyxia"
    INDEX 00 36:06:10
    INDEX 01 36:06:32
  TRACK 10 AUDIO
    TITLE "No Thanks"
    PERFORMER "Asphyxia"
    INDEX 00 39:24:33
    INDEX 01 39:24:35

_________________
Death The Ultimate Reality
Death The Ultimate Reason To Live


Last edited by MetalMilitia on 23 Apr 2014, edited 1 time in total.

Top
 Profile  
 
 
PostPosted: 23 Apr 2014 
Хиппей (support team)
User avatar
Joined: 30 Jul 2007
Posts: 114883
Lоcаtion: Киев (Kyiv, UA)
Age: 46
Name: Andrey
:thanx:

mirror: Narod l M-Cloud

_________________


Top
 Profile E-mail  
 
 
PostPosted: 23 Apr 2014 
Персональный статус
User avatar
Joined: 04 Mar 2012
Posts: 239
Lоcаtion: Саратов
Name: Василий
:thanx:


Top
 Profile E-mail  
 
 
PostPosted: 23 Apr 2014 
Хиппей (support team)
User avatar
Joined: 30 Jul 2007
Posts: 114883
Lоcаtion: Киев (Kyiv, UA)
Age: 46
Name: Andrey
Еще раз освежил в памяти альбом, чтобы в очередной раз убедиться, что он более чем трушен, блещет качеством и достаточно оригинален.
По стилю самый настоящий скоростной трэшак на основе хардкоровой американской школы :meloman:

8/10

_________________


Top
 Profile E-mail  
 
 
PostPosted: 23 Apr 2014 
Персональный статус
User avatar
Joined: 29 Jan 2009
Posts: 265
Lоcаtion: Таллин, Эстония.
Age: 32
Name: Роман Юрич
На дропбоксе оно долго лежать не будет, я потру его через пару дней, ибо мне там нужно место освобождать.

_________________
Death The Ultimate Reality
Death The Ultimate Reason To Live


Top
 Profile  
 
 
PostPosted: 23 Apr 2014 
Хиппей (support team)
User avatar
Joined: 30 Jul 2007
Posts: 114883
Lоcаtion: Киев (Kyiv, UA)
Age: 46
Name: Andrey
Перелито сразу и запихано в еще пару нычек :thanx: :lloo:

_________________


Top
 Profile E-mail  
 
 
PostPosted: 23 Apr 2014 
Прокъмитолист
User avatar
Joined: 12 Aug 2007
Posts: 6623
Lоcаtion: Санктъ-Петербуркъ
Age: 51
Name: Олекъ
спасибо! :thanx:

upd. Ром, а зачем сканы-то уменьшал? совершенно ж убил качество :(

_________________
прокъметол - это музыко, от которово есть прок (ы)


Top
 Profile  
 
 
PostPosted: 23 Apr 2014 
Персональный статус
User avatar
Joined: 29 Jan 2009
Posts: 265
Lоcаtion: Таллин, Эстония.
Age: 32
Name: Роман Юрич
C 300 DPI, которые были в тифе, я сделал 50 процентный ресайз в Фотошопе + добавил контраста, чтобы ближе к оригиналу смотрелись. Результат сохранил в ДЖПГ. Тифы сырые остались. Могу отдельно выложить. Если не уменьшать, то будут видны точки из которых состоит картинка. Мониторы довольно хреново делают пересчёт пикселей, если картинка не вся влезает на экран. А в Фотошопе пересчитанное изображение получается гораздо лучше. Оно всё равно больше оригинала на бумаге.

Для любителей поковыряться со сканами : Link Asphyxia ; Despair.

_________________
Death The Ultimate Reality
Death The Ultimate Reason To Live


Top
 Profile  
 
 
PostPosted: 24 Apr 2014 
Хиппей (support team)
User avatar
Joined: 30 Jul 2007
Posts: 114883
Lоcаtion: Киев (Kyiv, UA)
Age: 46
Name: Andrey
Забрал оригинальные сканчики без обработки :thanx:

_________________


Top
 Profile E-mail  
 
 
PostPosted: 24 Apr 2014 
Хиппей (support team)
User avatar
Joined: 30 Jul 2007
Posts: 114883
Lоcаtion: Киев (Kyiv, UA)
Age: 46
Name: Andrey
Забрал, да не в том виде...
Ром, архивчик битый то, а :oops:

_________________


Top
 Profile E-mail  
 
 
PostPosted: 24 Apr 2014 
Хиппей (support team)
User avatar
Joined: 30 Jul 2007
Posts: 114883
Lоcаtion: Киев (Kyiv, UA)
Age: 46
Name: Andrey
Хм, выковырял задний коврик Асфиксции и... это реально так хреново оригинал буклета пропечатан? :shok:

_________________


Top
 Profile E-mail  
 
 
PostPosted: 24 Apr 2014 
Прокъмитолист
User avatar
Joined: 12 Aug 2007
Posts: 6623
Lоcаtion: Санктъ-Петербуркъ
Age: 51
Name: Олекъ
еще раз спасибо Роману и за рип, и за сканы :thanx: исходные тифы сохранены мной в png. немного обрезаны белые поля по краям. и более никакой обработке сканы не подвергались (только скан диска был выровнен). так что выкладываю, по сути, практически исходники (png - такой же беспотерьный формат, как и tif):
http://yadi.sk/d/8cnxuIKAN9ChW

_________________
прокъметол - это музыко, от которово есть прок (ы)


Top
 Profile  
 
 
PostPosted: 24 Apr 2014 
Хиппей (support team)
User avatar
Joined: 30 Jul 2007
Posts: 114883
Lоcаtion: Киев (Kyiv, UA)
Age: 46
Name: Andrey
Спасибо всем за сканы и лосика и музыку :thanx:

Утянул только что по старой ссылке с Сэндспэйса архив. Теперь открылся нормально :vic:

mirror: (covers in *.tif) Narod l M-Cloud

_________________


Top
 Profile E-mail  
 
Display posts from previous:  Sort by  
Post new topic Reply to topic  [ 33 posts ]  Go to page Previous  1, 2

All times are UTC + 3 hours


Who is online

Users browsing this forum: No registered users and 2 guests


You cannot post new topics in this forum
You cannot reply to topics in this forum
You cannot edit your posts in this forum
You cannot delete your posts in this forum
You cannot post attachments in this forum

Search for:
Яндекс.Метрика
Powered by phpBB © 2000, 2002, 2005, 2007 phpBB Group