\m/ 80's metal \m/

Информационно-аналитический форум "80 см пыли" (In Search We Trust) "У нас никто никуда не спешит"
Me For You - http://me-4u.com
It is currently 18 Jun 2019

All times are UTC + 3 hours

Spoiler
Chat - temporary registration for foreign users (please leave your application here)







Post new topic Reply to topic  [ 33 posts ]  Go to page 1, 2  Next
Author Message
 
PostPosted: 17 Apr 2009 
Пионэръ
User avatar
Joined: 01 Feb 2009
Posts: 44
Lоcаtion: UA
Age: 30
Name: .
Данный альбом был на хедбенгерс, но после "ремонта" ннм доступ к старым новостям заблочился( (Или эт я забанен на новости alegrich))

Также может у кого-то есть хедбенгерские ссылки на 3 альбома немцев Erosion и 2 альбома Jester's March? :roll:
Ps. и Revenant - Prophecies of a Dying World 1991)) :fingal:

_________________
We're pain, we're steel, a plot of knives, we're Transmaniacon MC.


Top
 Profile  
 
 
PostPosted: 17 Apr 2009 
Хиппей (support team)
User avatar
Joined: 30 Jul 2007
Posts: 113081
Lоcаtion: Киев (Kyiv, UA)
Age: 46
Name: Andrey
Не понял я, лось нужен или мп3? Если последнее, то в Гугле валом.

По остальным запросам - отдельные темы делай.


Top
 Profile E-mail  
 
 
PostPosted: 17 Apr 2009 
Пионэръ
User avatar
Joined: 01 Feb 2009
Posts: 44
Lоcаtion: UA
Age: 30
Name: .
Scatterbrain
Лось конечно! У вас есть? :roll:

_________________
We're pain, we're steel, a plot of knives, we're Transmaniacon MC.


Top
 Profile  
 
 
PostPosted: 17 Apr 2009 
Хиппей (support team)
User avatar
Joined: 30 Jul 2007
Posts: 113081
Lоcаtion: Киев (Kyiv, UA)
Age: 46
Name: Andrey
Дык, так и нужно указывать - желаю лося. А то ж непонятно ничо :vic:

Ссылку на лося в личку сбросил. У самого сейчас нету возвожности его скачать и перезалить :pardon:


Top
 Profile E-mail  
 
 
PostPosted: 27 Sep 2009 
хард н хэвщик (support team)
User avatar
Joined: 02 Jun 2008
Posts: 16881
Lоcаtion: Н.Новгород
Age: 32
Name: Артем
Чего там с лосем-то ? не вижу в бухте :umnik:


Top
 Profile  
 
 
PostPosted: 05 Oct 2009 
Хиппей (support team)
User avatar
Joined: 30 Jul 2007
Posts: 113081
Lоcаtion: Киев (Kyiv, UA)
Age: 46
Name: Andrey
Ыть, я уже не помню о каком именно лосе речь шла :vic:

_________________


Top
 Profile E-mail  
 
 
PostPosted: 05 Oct 2009 
А может смените мне статус?..
User avatar
Joined: 17 Jan 2008
Posts: 883
Lоcаtion: Пенза
Age: 41
Name: Денис
Формат: Flac(image+cue),log,cover
Размер:311 mb(3%)
Источник: MMT

http://www.megaupload.com/?d=M7V84C6V


Top
 Profile  
 
 
PostPosted: 05 Oct 2009 
Хиппей (support team)
User avatar
Joined: 30 Jul 2007
Posts: 113081
Lоcаtion: Киев (Kyiv, UA)
Age: 46
Name: Andrey
А-а-а, Денис, можешь этого лося в Бухту нормально оформить?

_________________


Top
 Profile E-mail  
 
 
PostPosted: 05 Oct 2009 
А может смените мне статус?..
User avatar
Joined: 17 Jan 2008
Posts: 883
Lоcаtion: Пенза
Age: 41
Name: Денис
Scatterbrain wrote:
А-а-а, Денис, можешь этого лося в Бухту нормально оформить?

Наврядли,у меня он давно есть и возможно даже другой рип..Рытся искать надо по болванкам..Эти логи и куи...Линк,который я запостил на форуме,взят с одного из доков..Он рабочий,источник ММТ...


Top
 Profile  
 
 
PostPosted: 05 Oct 2009 
Хиппей (support team)
User avatar
Joined: 30 Jul 2007
Posts: 113081
Lоcаtion: Киев (Kyiv, UA)
Age: 46
Name: Andrey
Ок, пусть тогда тут и остается. Мне щас тож некогда с ним возиться :pardon:

_________________


Top
 Profile E-mail  
 
 
PostPosted: 05 Feb 2014 
Дежурный по КУПу
User avatar
Joined: 17 Aug 2007
Posts: 5871
Age: 51
Name: Ге
Второй хм... или уже третий месяц качаю с рутрекера этого "удушеного" лося... к слову он там даже успел откинуть копыта... :shok:
Может у кого есть? Сделайте, плиз, ссылочку. Нетовские ссыли не предлагать они или протухшие ужо или неполноценные, как на батце. :oops:

_________________
http://jp-mania.ru/
http://jp-tourdates.ucoz.ru/


Top
 Profile  
 
 
PostPosted: 05 Feb 2014 
Генеральный thrasher
User avatar
Joined: 03 Oct 2008
Posts: 3710
Lоcаtion: Ханты-Мансийский АО
Age: 44
Name: Сергей
Второй хм... или уже третий месяц качаю с рутрекера этого "удушеного" лося... к слову он там даже успел откинуть копыта... :shok:
Может у кого есть? Сделайте, плиз, ссылочку. Нетовские ссыли не предлагать они или протухшие ужо или неполноценные, как на батце. :oops:


Сейчас забацаю MMT-шного лося... :lloo:


Top
 Profile  
 
 
PostPosted: 05 Feb 2014 
Генеральный thrasher
User avatar
Joined: 03 Oct 2008
Posts: 3710
Lоcаtion: Ханты-Мансийский АО
Age: 44
Name: Сергей
Image

Album:Exit: Reality
Source:MMT (gnoppi)
Format:Wavpack
Size:320Mb

"Cue"
REM GENRE Thrash Metal
REM DATE 1991
PERFORMER "Asphyxia"
TITLE "Exit : Reality"
REM REPLAYGAIN_ALBUM_GAIN -5.72 dB
REM REPLAYGAIN_ALBUM_PEAK 1.000000
FILE "Asphyxia - Exit Reality.wv" WAVE
TRACK 01 AUDIO
TITLE "Capital Punishment"
REM REPLAYGAIN_TRACK_GAIN -5.81 dB
REM REPLAYGAIN_TRACK_PEAK 0.992157
INDEX 00 00:00:00
INDEX 01 00:00:32
TRACK 02 AUDIO
TITLE "Violence First"
REM REPLAYGAIN_TRACK_GAIN -5.21 dB
REM REPLAYGAIN_TRACK_PEAK 1.000000
INDEX 00 05:07:67
INDEX 01 05:08:22
TRACK 03 AUDIO
TITLE "Slice Of Death"
REM REPLAYGAIN_TRACK_GAIN -6.08 dB
REM REPLAYGAIN_TRACK_PEAK 1.000000
INDEX 00 08:59:24
INDEX 01 08:59:50
TRACK 04 AUDIO
TITLE "Health For Sale"
REM REPLAYGAIN_TRACK_GAIN -5.91 dB
REM REPLAYGAIN_TRACK_PEAK 1.000000
INDEX 00 13:08:41
INDEX 01 13:08:70
TRACK 05 AUDIO
TITLE "Paranoia Time"
REM REPLAYGAIN_TRACK_GAIN -3.98 dB
REM REPLAYGAIN_TRACK_PEAK 0.925049
INDEX 00 19:22:72
INDEX 01 19:23:22
TRACK 06 AUDIO
TITLE "The One Who Minds The Worm"
REM REPLAYGAIN_TRACK_GAIN -5.87 dB
REM REPLAYGAIN_TRACK_PEAK 1.000000
INDEX 00 23:08:68
INDEX 01 23:09:35
TRACK 07 AUDIO
TITLE "One Big Family"
REM REPLAYGAIN_TRACK_GAIN -5.84 dB
REM REPLAYGAIN_TRACK_PEAK 1.000000
INDEX 00 27:22:36
INDEX 01 27:23:00
TRACK 08 AUDIO
TITLE "Where Shadows Are Dark"
REM REPLAYGAIN_TRACK_GAIN -5.27 dB
REM REPLAYGAIN_TRACK_PEAK 1.000000
INDEX 00 31:58:46
INDEX 01 31:58:60
TRACK 09 AUDIO
TITLE "Mr. Pain"
REM REPLAYGAIN_TRACK_GAIN -5.42 dB
REM REPLAYGAIN_TRACK_PEAK 1.000000
INDEX 00 36:06:05
INDEX 01 36:06:32
TRACK 10 AUDIO
TITLE "No Thanks"
REM REPLAYGAIN_TRACK_GAIN -6.00 dB
REM REPLAYGAIN_TRACK_PEAK 1.000000
INDEX 00 39:24:28
INDEX 01 39:24:35

"Log"
Exact Audio Copy V0.99 prebeta 4 from 23. January 2008

EAC extraction logfile from 12. July 2009, 19:31

Asphyxia / Exit : Reality

Used drive : PIONEER DVD-RW DVR-215 Adapter: 2 ID: 3

Read mode : Secure
Utilize accurate stream : Yes
Defeat audio cache : Yes
Make use of C2 pointers : No

Read offset correction : 48
Overread into Lead-In and Lead-Out : No
Fill up missing offset samples with silence : Yes
Delete leading and trailing silent blocks : No
Null samples used in CRC calculations : Yes
Used interface : Installed external ASPI interface

Used output format : Internal WAV Routines
Sample format : 44.100 Hz; 16 Bit; Stereo


TOC of the extracted CD

Track | Start | Length | Start sector | End sector
---------------------------------------------------------
1 | 0:00.32 | 5:07.65 | 32 | 23121
2 | 5:08.22 | 3:51.28 | 23122 | 40474
3 | 8:59.50 | 4:09.20 | 40475 | 59169
4 | 13:08.70 | 6:14.27 | 59170 | 87246
5 | 19:23.22 | 3:46.13 | 87247 | 104209
6 | 23:09.35 | 4:13.40 | 104210 | 123224
7 | 27:23.00 | 4:35.60 | 123225 | 143909
8 | 31:58.60 | 4:07.47 | 143910 | 162481
9 | 36:06.32 | 3:18.03 | 162482 | 177334
10 | 39:24.35 | 4:35.02 | 177335 | 197961


Range status and errors

Selected range

Filename F:\EAC WORK\Asphyxia - Exit Reality.wav

Peak level 100.0 %
Range quality 100.0 %
Copy CRC 18F50A4F
Copy OK

No errors occurred


AccurateRip summary

Track 1 not present in database
Track 2 not present in database
Track 3 not present in database
Track 4 not present in database
Track 5 not present in database
Track 6 not present in database
Track 7 not present in database
Track 8 not present in database
Track 9 not present in database
Track 10 not present in database

None of the tracks are present in the AccurateRip database

End of status report


Exit:Reality


Top
 Profile  
 
 
PostPosted: 05 Feb 2014 
Дежурный по КУПу
User avatar
Joined: 17 Aug 2007
Posts: 5871
Age: 51
Name: Ге
Сергей, спасибо тебе грандмерсишное :thanx: :true:

_________________
http://jp-mania.ru/
http://jp-tourdates.ucoz.ru/


Top
 Profile  
 
 
PostPosted: 06 Feb 2014 
Хиппей (support team)
User avatar
Joined: 30 Jul 2007
Posts: 113081
Lоcаtion: Киев (Kyiv, UA)
Age: 46
Name: Andrey
:thanx:

mirror: Narod l M-Cloud

_________________


Top
 Profile E-mail  
 
 
PostPosted: 03 Mar 2014 
Персональный статус
User avatar
Joined: 29 Jan 2009
Posts: 265
Lоcаtion: Таллин, Эстония.
Age: 32
Name: Роман Юрич
Если требуется - могу сканы с диска сделать.

_________________
Death The Ultimate Reality
Death The Ultimate Reason To Live


Top
 Profile  
 
 
PostPosted: 04 Mar 2014 
Генеральный thrasher
User avatar
Joined: 03 Oct 2008
Posts: 3710
Lоcаtion: Ханты-Мансийский АО
Age: 44
Name: Сергей
Сканы требуются.А может лосишку :lloo: со сканами сделаешь?На замену MMT-шному...


Top
 Profile  
 
 
PostPosted: 21 Apr 2014 
Персональный статус
User avatar
Joined: 04 Mar 2012
Posts: 239
Lоcаtion: Саратов
Name: Василий
Сканы бы..


Top
 Profile E-mail  
 
 
PostPosted: 22 Apr 2014 
Персональный статус
User avatar
Joined: 29 Jan 2009
Posts: 265
Lоcаtion: Таллин, Эстония.
Age: 32
Name: Роман Юрич
Лады, завтра займусь.

_________________
Death The Ultimate Reality
Death The Ultimate Reason To Live


Top
 Profile  
 
 
PostPosted: 22 Apr 2014 
Персональный статус
User avatar
Joined: 29 Jan 2009
Posts: 265
Lоcаtion: Таллин, Эстония.
Age: 32
Name: Роман Юрич
Лось и сканы готовы. Осталось выложить.

_________________
Death The Ultimate Reality
Death The Ultimate Reason To Live


Top
 Profile  
 
Display posts from previous:  Sort by  
Post new topic Reply to topic  [ 33 posts ]  Go to page 1, 2  Next

All times are UTC + 3 hours


Who is online

Users browsing this forum: No registered users and 2 guests


You cannot post new topics in this forum
You cannot reply to topics in this forum
You cannot edit your posts in this forum
You cannot delete your posts in this forum
You cannot post attachments in this forum

Search for:
Яндекс.Метрика
Powered by phpBB © 2000, 2002, 2005, 2007 phpBB Group