\m/ 80's metal \m/

Информационно-аналитический форум "80 см пыли" (In Search We Trust) "У нас никто никуда не спешит"
Me For You - http://me-4u.com
It is currently 20 Oct 2019

All times are UTC + 3 hours

Spoiler
Chat - temporary registration for foreign users (please leave your application here)







Post new topic Reply to topic  [ 43 posts ]  Go to page Previous  1, 2, 3  Next
Author Message
 
PostPosted: 21 Oct 2008 
Power Metal Maniac
User avatar
Joined: 09 Aug 2008
Posts: 6923
Lоcаtion: Москва
Age: 41
Name: Егор
Группа однозначно та же! И вокал то же, характерный, метсмаи напоминает вокалиста группы Axxis, да и музыка не так уж и сильно отличается. Второй альбом более мелодичный и коммерческий так сказать.

Ниже мои рвеью с Таверны RW:

Area - Twilight (1986)
Немецкий Мелодик Хэви, временами разгоняющийся до Power. Вот эти быстрые припаваренные композиции - Heroes for Sale, Fight for the Rock, Twilight, Strike Back - мне естественно понравились больше всего. В остальном - смесь традиционного (Killer - главный рифф напоминает Avenger "Prayers of Steel", Back Up the Law) и мелодичного метала в духе Axxis, манера вокалиста, особенно когда он поет высокие ноты, мне как раз сильно напомнила Bernhard Weiss. Достаточно приятный альбом, без излишних заморочек. 4.6/6.0.


Area - The Falcon (1992)
Второй и последний альбом немцев вышел лишь спустя 6 лет. Звучание стало чуточку более современное (но ни в коем случае не модерновое или альтернативное!), а в музыке в целом появилось еще больше мелодизма. Быстрых вещей практически нет, лишь открывашка Renegade и середина Killing Fields - опять-таки лучшие вещи в моем восприятии. Другие вещи в общем неплохие, подкупают своей мелодичностью, но драйва и жесткости часто им не достает. Элементы Accept, Scorpions и снова-таки Axxis присутствуют. Альбом неплохой, но уступает первому. 4.1/6.0.

_________________
Long Live Metal!


Top
 Profile  
 
 
PostPosted: 05 Dec 2008 
Персональный статус
User avatar
Joined: 23 Jan 2008
Posts: 339
Age: 45
Name: Олег
Спасибо за знакомство с сабжем :thanx:

Мне немецкая АрЕя )) понравилась, причем оба альбома,
не взирая на их разность. Как говорится каждый по своему.
McKagan wrote:
Послушал я на днях обюа альбома, и что-то меня сомнения взяли, что это одна и та же группа. Ни у кого подобного не возникло? :fingal:
McKagan wrote:
ну и музон там мягко говоря сильно расходится... и вокалист вроде по другому поет :nea:

У меня тоже такое ощущение появилось, сразу. Альбомы действительно разнятся между собой.

Оно то и понятно 1986/1992 - можно сказать разные эпохи, а 92-й, вообще, прошел под флагом нирвановского Невэрмайнда (мне вообще чего то не приходит на ум не одной группы у которой материал средины 90-х был бы похож на то что они делали в средине 80-х). Да в принципе и для вокалиста шесть лет это огромный срок, мало у кого голос со временем не трансформируется. Вот наверное по этим причинам и кажется, что это разные группы.
...на мой взгляд :smile:


Top
 Profile  
 
 
PostPosted: 05 Dec 2008 
Эх, добрый я
User avatar
Joined: 04 Nov 2008
Posts: 315
Age: 45
Name: Вадим
Это одна и та-же команда. На мой взгляд
Area - Twilight (1986)-сыгран от души
Area - The Falcon (1992)-коммерческий, прилизанный


Top
 Profile  
 
 
PostPosted: 06 Dec 2008 
Alive Again
User avatar
Joined: 23 Jul 2008
Posts: 3350
Age: 48
Name: Кирилл
Хороший бэнд, понравились оба

_________________
COS I WAS BORN TO ROCK
AND I'LL NEVER EVER STOP


Top
 Profile  
 
 
PostPosted: 08 Aug 2013 
Хиппей (support team)
User avatar
Joined: 30 Jul 2007
Posts: 114953
Lоcаtion: Киев (Kyiv, UA)
Age: 46
Name: Andrey
Area - 1988 - Twilight (2010, Mexico, Blower Records, BR 017-10) [flac]

ImageImageImageImageImageImageImage
ImageImageImageImage

mirror: F-Bit l Narod

По альбому можно ничо не буду в который раз говорить?
Спасибо...
А вот качество записи на переиздании... ээээ... Да-да, отделаюсь казённой фразой - "оставляет желать лучшего" :fingal:

log
Exact Audio Copy V1.0 beta 3 from 29. August 2011

EAC extraction logfile from 18. May 2013, 14:48

Area / Twilight [BR 017-10]

Used drive : HL-DT-STDVDRAM GSA-T50F Adapter: 0 ID: 2

Read mode : Secure
Utilize accurate stream : Yes
Defeat audio cache : Yes
Make use of C2 pointers : No

Read offset correction : 667
Overread into Lead-In and Lead-Out : No
Fill up missing offset samples with silence : Yes
Delete leading and trailing silent blocks : No
Null samples used in CRC calculations : Yes
Used interface : Installed external ASPI interface

Used output format : Internal WAV Routines
Sample format : 44.100 Hz; 16 Bit; Stereo


TOC of the extracted CD

Track | Start | Length | Start sector | End sector
---------------------------------------------------------
1 | 0:00.00 | 3:37.30 | 0 | 16304
2 | 3:37.30 | 3:41.02 | 16305 | 32881
3 | 7:18.32 | 4:43.42 | 32882 | 54148
4 | 12:01.74 | 4:01.67 | 54149 | 72290
5 | 16:03.66 | 6:57.40 | 72291 | 103605
6 | 23:01.31 | 3:07.00 | 103606 | 117630
7 | 26:08.31 | 3:25.34 | 117631 | 133039
8 | 29:33.65 | 4:02.24 | 133040 | 151213
9 | 33:36.14 | 4:37.13 | 151214 | 172001
10 | 38:13.27 | 2:51.27 | 172002 | 184853
11 | 41:04.54 | 4:47.23 | 184854 | 206401


Range status and errors

Selected range

Filename D:\CDRip by Ballcrusher\Area - Twilight [BR 017-10].wav

Peak level 100.0 %
Extraction speed 3.9 X
Range quality 100.0 %
Test CRC AF0165A5
Copy CRC AF0165A5
Copy OK

No errors occurred


AccurateRip summary

Track 1 not present in database
Track 2 not present in database
Track 3 not present in database
Track 4 not present in database
Track 5 not present in database
Track 6 not present in database
Track 7 not present in database
Track 8 not present in database
Track 9 not present in database
Track 10 not present in database
Track 11 not present in database

None of the tracks are present in the AccurateRip database

End of status report

==== Log checksum BD3F80EDE72195893FE78F3C302E5B114490B7C69DA2ABE5F5F7A933081E5666 ====

cue
REM DATE 1988
REM DISCID 950AC00B
REM COMMENT "ExactAudioCopy v1.0b3"
PERFORMER "Area"
TITLE "Twilight [BR 017-10]"
FILE "Area - Twilight [BR 017-10].wav" WAVE
TRACK 01 AUDIO
TITLE "Heroes For Sale"
PERFORMER "Area"
FLAGS DCP
INDEX 01 00:00:00
TRACK 02 AUDIO
TITLE "Like A Walk On Ice"
PERFORMER "Area"
FLAGS DCP
INDEX 01 03:37:30
TRACK 03 AUDIO
TITLE "Stone Cold"
PERFORMER "Area"
FLAGS DCP
INDEX 01 07:18:32
TRACK 04 AUDIO
TITLE "Fight For The Rock"
PERFORMER "Area"
FLAGS DCP
INDEX 01 12:01:74
TRACK 05 AUDIO
TITLE "Killer"
PERFORMER "Area"
FLAGS DCP
INDEX 01 16:03:66
TRACK 06 AUDIO
TITLE "Twilight"
PERFORMER "Area"
FLAGS DCP
INDEX 01 23:01:31
TRACK 07 AUDIO
TITLE "The Price"
PERFORMER "Area"
FLAGS DCP
INDEX 01 26:08:31
TRACK 08 AUDIO
TITLE "Dust To Dust"
PERFORMER "Area"
FLAGS DCP
INDEX 01 29:33:65
TRACK 09 AUDIO
TITLE "Back Up The Law"
PERFORMER "Area"
FLAGS DCP
INDEX 01 33:36:14
TRACK 10 AUDIO
TITLE "Strike Back"
PERFORMER "Area"
FLAGS DCP
INDEX 01 38:13:27
TRACK 11 AUDIO
TITLE "Look In My Eyes [Bonus]"
PERFORMER "Area"
FLAGS DCP
INDEX 01 41:04:54


Area - 1992 - The Falcon (1992, Germany, CMV, 08-1002) [flac]

ImageImageImageImageImage

Спёрто с rutracker.org :thanx:

mirror: F-Bit l Narod

Хороший альбом и звук тоже :dance:

log
Exact Audio Copy V1.0 beta 3 from 29. August 2011

EAC extraction logfile from 18. May 2013, 15:14

Area / The Falcon [CMV 08-1002]

Used drive : HL-DT-STDVDRAM GSA-T50F Adapter: 0 ID: 2

Read mode : Secure
Utilize accurate stream : Yes
Defeat audio cache : Yes
Make use of C2 pointers : No

Read offset correction : 667
Overread into Lead-In and Lead-Out : No
Fill up missing offset samples with silence : Yes
Delete leading and trailing silent blocks : No
Null samples used in CRC calculations : Yes
Used interface : Installed external ASPI interface

Used output format : Internal WAV Routines
Sample format : 44.100 Hz; 16 Bit; Stereo


TOC of the extracted CD

Track | Start | Length | Start sector | End sector
---------------------------------------------------------
1 | 0:00.00 | 5:25.45 | 0 | 24419
2 | 5:25.45 | 4:27.35 | 24420 | 44479
3 | 9:53.05 | 4:30.52 | 44480 | 64781
4 | 14:23.57 | 4:36.00 | 64782 | 85481
5 | 18:59.57 | 6:16.30 | 85482 | 113711
6 | 25:16.12 | 5:34.43 | 113712 | 138804
7 | 30:50.55 | 5:03.55 | 138805 | 161584
8 | 35:54.35 | 6:05.12 | 161585 | 188971
9 | 41:59.47 | 0:32.23 | 188972 | 191394
10 | 42:31.70 | 3:46.50 | 191395 | 208394


Range status and errors

Selected range

Filename D:\CDRip by Ballcrusher\Area - The Falcon [CMV 08-1002].wav

Peak level 99.2 %
Extraction speed 3.9 X
Range quality 100.0 %
Test CRC 4FF0032E
Copy CRC 4FF0032E
Copy OK

No errors occurred


AccurateRip summary

Track 1 cannot be verified as accurate (confidence 1) [B394BD39], AccurateRip returned [668945C6] (AR v2)
Track 2 cannot be verified as accurate (confidence 1) [409A7F73], AccurateRip returned [D55536E3] (AR v2)
Track 3 cannot be verified as accurate (confidence 1) [C817FC47], AccurateRip returned [F9A95E3B] (AR v2)
Track 4 cannot be verified as accurate (confidence 1) [A31F2751], AccurateRip returned [45162F69] (AR v2)
Track 5 cannot be verified as accurate (confidence 1) [D7EBC718], AccurateRip returned [01D481AD] (AR v2)
Track 6 cannot be verified as accurate (confidence 1) [967EBEDB], AccurateRip returned [C79A32F1] (AR v2)
Track 7 cannot be verified as accurate (confidence 1) [AE149928], AccurateRip returned [0840B3D3] (AR v2)
Track 8 cannot be verified as accurate (confidence 1) [E9816FB9], AccurateRip returned [B112056C] (AR v2)
Track 9 cannot be verified as accurate (confidence 1) [7D81AFCE], AccurateRip returned [DFED6660] (AR v2)
Track 10 cannot be verified as accurate (confidence 1) [EC13BFF3], AccurateRip returned [C7817B60] (AR v2)

No tracks could be verified as accurate
You may have a different pressing from the one(s) in the database

End of status report

==== Log checksum 7C5B2009194ACC39F76A1EE8F7C582A51D29615CD12F0EDBE7EA17DDF8FE19D1 ====

cue
REM DATE 1992
REM DISCID 810ADA0A
REM COMMENT "ExactAudioCopy v1.0b3"
PERFORMER "Area"
TITLE "The Falcon [CMV 08-1002]"
FILE "Area - The Falcon [CMV 08-1002].wav" WAVE
TRACK 01 AUDIO
TITLE "Renegade"
PERFORMER "Area"
INDEX 01 00:00:00
TRACK 02 AUDIO
TITLE "The Falcon"
PERFORMER "Area"
INDEX 00 05:21:45
INDEX 01 05:25:45
TRACK 03 AUDIO
TITLE "Without Warning"
PERFORMER "Area"
INDEX 00 09:50:57
INDEX 01 09:53:05
TRACK 04 AUDIO
TITLE "Killing Fields"
PERFORMER "Area"
INDEX 00 14:19:65
INDEX 01 14:23:57
TRACK 05 AUDIO
TITLE "No Return"
PERFORMER "Area"
INDEX 00 18:56:50
INDEX 01 18:59:57
TRACK 06 AUDIO
TITLE "Destiny"
PERFORMER "Area"
INDEX 00 25:12:47
INDEX 01 25:16:12
TRACK 07 AUDIO
TITLE "Come Under Fire"
PERFORMER "Area"
INDEX 00 30:47:50
INDEX 01 30:50:55
TRACK 08 AUDIO
TITLE "Born In The City"
PERFORMER "Area"
INDEX 00 35:50:57
INDEX 01 35:54:35
TRACK 09 AUDIO
TITLE "Reprise"
PERFORMER "Area"
INDEX 00 41:55:52
INDEX 01 41:59:47
TRACK 10 AUDIO
TITLE "No Way Out"
PERFORMER "Area"
INDEX 00 42:26:35
INDEX 01 42:31:70

_________________


Top
 Profile E-mail  
 
 
PostPosted: 08 Aug 2013 
Рарник и трушник
User avatar
Joined: 25 Dec 2009
Posts: 8793
Lоcаtion: Москва
Age: 54
Name: Виталий
Scatterbrain wrote:
А вот качество записи на переиздании... ээээ... Да-да, отделаюсь казённой фразой - "оставляет желать лучшего" :fingal:


Андрей, послушай ещё, и поймешь, что он сделан с мп-тришки, выложенной выше (ну или с сетевого мп3 рипа). Срез на 16 кГц, фаза в каналах перевернута, каашмар. :umnik: Я б бловерам бошки-то поотрывал бы. :esel:
Ну ниччо, скоро винилка будет! :benya:


Top
 Profile  
 
 
PostPosted: 08 Aug 2013 
Хиппей (support team)
User avatar
Joined: 30 Jul 2007
Posts: 114953
Lоcаtion: Киев (Kyiv, UA)
Age: 46
Name: Andrey
Да я понял. Даже спектры не смотрел. Слышно ж и так :fingal:

_________________


Top
 Profile E-mail  
 
 
PostPosted: 08 Aug 2013 
HAMMER
User avatar
Joined: 16 May 2009
Posts: 5488
Lоcаtion: Тверь
Age: 46
Name: Александр
Scatterbrain wrote:
Area - 1988 - Twilight

А почему он везде, выше в постах, фигурирует как 1986 год? На диске написано декабрь 87 - февраль 88.


Top
 Profile E-mail  
 
 
PostPosted: 08 Aug 2013 
Рарник и трушник
User avatar
Joined: 25 Dec 2009
Posts: 8793
Lоcаtion: Москва
Age: 54
Name: Виталий
Molot wrote:
А почему он везде, выше в постах, фигурирует как 1986 год? На диске написано декабрь 87 - февраль 88.

Да как появился рип с ошибкой в сети, так и пошло. :pardon: На самом деле этот альбом действительно 88 года. :pardon:


Top
 Profile  
 
 
PostPosted: 09 Aug 2013 
Хиппей (support team)
User avatar
Joined: 30 Jul 2007
Posts: 114953
Lоcаtion: Киев (Kyiv, UA)
Age: 46
Name: Andrey
Molot wrote:
А почему он везде, выше в постах, фигурирует как 1986 год?

Это из-за долбаных добавочных демок на бразильском безобразии :esel:

_________________


Top
 Profile E-mail  
 
 
PostPosted: 09 Aug 2013 
Рарник и трушник
User avatar
Joined: 25 Dec 2009
Posts: 8793
Lоcаtion: Москва
Age: 54
Name: Виталий
Scatterbrain wrote:
Это из-за долбаных добавочных демок на бразильском безобразии


:umnik: Андрюх, чёт не понял, там же нету демок :umnik:


Top
 Profile  
 
 
PostPosted: 09 Aug 2013 
Хиппей (support team)
User avatar
Joined: 30 Jul 2007
Posts: 114953
Lоcаtion: Киев (Kyiv, UA)
Age: 46
Name: Andrey
Ой, точно :fingal: http://www.metal-archives.com/albums/Ar ... tabs_notes

_________________


Top
 Profile E-mail  
 
 
PostPosted: 10 Aug 2013 
Я набрал 1000 сообщений!
Joined: 24 Oct 2009
Posts: 2276
Lоcаtion: Оренбург
Age: 56
Name: Юра
:thanx:
Вторая песня, Вавилон - Кипеловский напомнила. :true:

_________________
:dash: I am happy!


Top
 Profile E-mail  
 
 
PostPosted: 21 Oct 2013 
Почётный металлург
User avatar
Joined: 15 Sep 2007
Posts: 4358
Lоcаtion: Хабаровск
Age: 59
Name: чуть выше
Vitaly65 wrote:
он сделан с мп-тришки, выложенной выше (ну или с сетевого мп3 рипа). Срез на 16 кГц, фаза в каналах перевернута, каашмар.


http://snaggletooth-hq-lossless.moole.r ... -1988.html
Вот здесь спектры как положено. Проверял. Можете заходить и забирать. На этом доке кстати вкусностей много.

_________________
Коль будешь людей ты ослами честить,
тебе человеком меж них не прослыть!
(Саади, персидский поэт, 13в.)


Top
 Profile  
 
 
PostPosted: 21 Oct 2013 
Хиппей (support team)
User avatar
Joined: 30 Jul 2007
Posts: 114953
Lоcаtion: Киев (Kyiv, UA)
Age: 46
Name: Andrey
Переиздание от мексиканцев, затем выпущенное на Каторге и ничё не перевёрнуто?
Не верю :shok:

Но уже качаю :dance:

_________________


Top
 Profile E-mail  
 
 
PostPosted: 21 Oct 2013 
Хиппей (support team)
User avatar
Joined: 30 Jul 2007
Posts: 114953
Lоcаtion: Киев (Kyiv, UA)
Age: 46
Name: Andrey
Серёж, а ты этот рип viewtopic.php?p=185140#p185140 слушал? :lloo:

_________________


Top
 Profile E-mail  
 
 
PostPosted: 21 Oct 2013 
Хиппей (support team)
User avatar
Joined: 30 Jul 2007
Posts: 114953
Lоcаtion: Киев (Kyiv, UA)
Age: 46
Name: Andrey
Vitaly65 wrote:
он сделан с мп-тришки, выложенной выше (ну или с сетевого мп3 рипа). Срез на 16 кГц, фаза в каналах перевернута, каашмар.


http://snaggletooth-hq-lossless.moole.r ... -1988.html
Вот здесь спектры как положено. Проверял. Можете заходить и забирать. На этом доке кстати вкусностей много.

mirror: http://yadi.sk/d/3toTbXkZBLb4F

Извините, даже слушать не буду. Просто перелил и удаляю файл.

_________________


Top
 Profile E-mail  
 
 
PostPosted: 21 Oct 2013 
Рарник и трушник
User avatar
Joined: 25 Dec 2009
Posts: 8793
Lоcаtion: Москва
Age: 54
Name: Виталий
Scatterbrain wrote:
Извините, даже слушать не буду. Просто перелил и удаляю файл.

Правильно! А то я уже лося освежевал...э..э очистил. :benya:


Top
 Profile  
 
 
PostPosted: 21 Oct 2013 
Хиппей (support team)
User avatar
Joined: 30 Jul 2007
Posts: 114953
Lоcаtion: Киев (Kyiv, UA)
Age: 46
Name: Andrey
Ура! :true:
А вот теперь пусть дядь Серёжа сравниваем и дальше звук по спектрам, ыгы :lloo:

_________________


Top
 Profile E-mail  
 
 
PostPosted: 22 Oct 2013 
Почётный металлург
User avatar
Joined: 15 Sep 2007
Posts: 4358
Lоcаtion: Хабаровск
Age: 59
Name: чуть выше
Scatterbrain wrote:
Серёж, а ты этот рип viewtopic.php?p=185140#p185140 слушал?

:nea: Тот не слушал. Просто прочел ваши отзывы и проверил с того дока.
Послухаю винильчик от Витальки.

_________________
Коль будешь людей ты ослами честить,
тебе человеком меж них не прослыть!
(Саади, персидский поэт, 13в.)


Top
 Profile  
 
Display posts from previous:  Sort by  
Post new topic Reply to topic  [ 43 posts ]  Go to page Previous  1, 2, 3  Next

All times are UTC + 3 hours


Who is online

Users browsing this forum: No registered users and 2 guests


You cannot post new topics in this forum
You cannot reply to topics in this forum
You cannot edit your posts in this forum
You cannot delete your posts in this forum
You cannot post attachments in this forum

Search for:
Яндекс.Метрика
Powered by phpBB © 2000, 2002, 2005, 2007 phpBB Group