\m/ 80's metal \m/

Информационно-аналитический форум "80 см пыли" (In Search We Trust) "У нас никто никуда не спешит"
Me For You - http://me-4u.com
It is currently 15 Oct 2019

All times are UTC + 3 hours

Spoiler
Chat - temporary registration for foreign users (please leave your application here)







Post new topic Reply to topic  [ 35 posts ]  Go to page Previous  1, 2
Author Message
 
PostPosted: 18 Feb 2009 
Персональный статус
User avatar
Joined: 03 Jun 2008
Posts: 256
Age: 49
Name: АнаТолий
Terrion wrote:
Остальных всего один


Вот-вот должны выпустить Legend Of Madog.

Image

Track Listing

1 Song Of Owain
2 Madog Theme
3 The King Is Dead
4 Sins Of The Sons
5 Not Brothers Anymore
6 Little End
7 King Of The Sea
8 New World
9 Enemy Unknown
10 The Deadliest Sin
11 Something For Me
12 Terrifying Manhunt
13 Death Defier
14 Eagle's Gift
15 Peace At Last
16 Glory Of Wales

Было бы интересно послушать :dance:


Top
 Profile  
 
 
PostPosted: 18 Feb 2009 
Power Metal Maniac
User avatar
Joined: 09 Aug 2008
Posts: 6907
Lоcаtion: Москва
Age: 41
Name: Егор
roxxx
уху, скачаю обязательно, как появится. Надеюсь, не ударятся в просто Хэви или в какие-нить новомодные штучки.

_________________
Long Live Metal!


Top
 Profile  
 
 
PostPosted: 18 Feb 2009 
Metal Collector
User avatar
Joined: 16 Nov 2008
Posts: 1260
Lоcаtion: Химки
Age: 36
Name: Андрей
По превью вроде то же самое :) Только они его выпускают долго - анонс уже довольно давно был.


Top
 Profile E-mail  
 
 
PostPosted: 09 Mar 2009 
Персональный статус
User avatar
Joined: 03 Jun 2008
Posts: 256
Age: 49
Name: АнаТолий
roxxx wrote:
Вот-вот должны выпустить Legend Of Madog

Вроде как вышел :true:
http://www.metal-archives.com/release.php?id=228502
http://cdbaby.com/cd/airborn

Хочу...


Top
 Profile  
 
 
PostPosted: 07 Mar 2011 
Работнечег
User avatar
Joined: 28 Aug 2007
Posts: 6027
Lоcаtion: г. Москва
Age: 30
Name: Дима
D-Generation в лосслесс так и не нашёлся? :oops:


Top
 Profile E-mail  
 
 
PostPosted: 07 Mar 2011 
Я набрал 1000 сообщений!
User avatar
Joined: 25 Dec 2008
Posts: 1545
Age: 44
Name: Павел
Дима,здесь посмотри:
http://nnm.ru/blogs/begemot888/airborn_ ... _digipack/


Top
 Profile  
 
 
PostPosted: 07 Mar 2011 
Работнечег
User avatar
Joined: 28 Aug 2007
Posts: 6027
Lоcаtion: г. Москва
Age: 30
Name: Дима
Спасибо за ссылку, Паш! Мне впринципе не надо, просто потихонечку пытаюсь порядок в лосёвых запросах навести) Темку закрываю тогда :thanx:


Top
 Profile E-mail  
 
 
PostPosted: 10 Apr 2018 
Partisanen - nicht kapitulieren!!
User avatar
Joined: 25 Dec 2011
Posts: 7150
Lоcаtion: партизанские леса
Age: 47
Name: Владимир
а тем временем... 15 мая выходит
2018 - Lizard Secrets: Part One - Land of the Living
Image
01. Immortal Underdogs (Intro) 01:26 instrumental
02. Who We Are 03:51
03. Lizard Secret 04:37
04. We Realize 04:26
05. Brace for Impact 03:31
06. Wolf Child 03:38
07. Here Comes the Claw 03:10
08. Land of the Living 04:02
09. Meaning of Life 03:00
10. Metal Haters 03:40
11. Defenders of Planet Earth 04:16
12. My Country Is the World 06:56
13. Cosmic Rebels (re-recorded) 03:33
TPT 50:06

пару трэков можно на бэндкампе послушать

_________________
One more beer and Heavy Metal and I'm just fine!
старовер, куле... слово "блин" - до сих пор через Ъ говорю


Last edited by 32warlord1 on 18 May 2018, edited 1 time in total.

Top
 Profile E-mail  
 
 
PostPosted: 11 Apr 2018 
Я набрал 1000 сообщений!
Joined: 21 Nov 2009
Posts: 1415
Lоcаtion: praga
Age: 49
Name: Сергей
а тем временем... 15 мая выходит
2018 - Lizard Secrets: Part One - Land of the Living
Image
01. Immortal Underdogs (Intro) 01:26 instrumental
02. Who We Are 03:51
03. Lizard Secret 04:37
04. We Realize 04:26
05. Brace for Impact 03:31
06. Wolf Child 03:38
07. Here Comes the Claw 03:10
08. Land of the Living 04:02
09. Meaning of Life 03:00
10. Metal Haters 03:40
11. Defenders of Planet Earth 04:16
12. My Country Is the World 06:56
13. Cosmic Rebels (re-recorded) 03:33
TPT 50:06

пару трэков можно на бэндкампе послушать

А почему 15 мая?Он уже дней 10 как залит!

http://raritetno.com/lossless/155864-ai ... sless.html

Только все равно дебютник и 2003 года альбом лучше в разы,это так же подтверждают перезаписанные старые песни.


Top
 Profile E-mail  
 
 
PostPosted: 11 Apr 2018 
Хиппей (support team)
User avatar
Joined: 30 Jul 2007
Posts: 114829
Lоcаtion: Киев (Kyiv, UA)
Age: 46
Name: Andrey
sin2 wrote:
А почему 15 мая?Он уже дней 10 как залит!

:thanx:

Image

mirror: Giga l Drop l M-Cloud l Narod

log
Exact Audio Copy V1.3 from 2. September 2016

EAC extraction logfile from 29. March 2018, 12:22

Airborn / Lizard Secrets (Japan)

Used drive : ATAPI iHAS122 W Adapter: 2 ID: 0

Read mode : Secure
Utilize accurate stream : Yes
Defeat audio cache : Yes
Make use of C2 pointers : No

Read offset correction : 48
Overread into Lead-In and Lead-Out : No
Fill up missing offset samples with silence : Yes
Delete leading and trailing silent blocks : No
Null samples used in CRC calculations : Yes
Used interface : Installed external ASPI interface

Used output format : User Defined Encoder
Selected bitrate : 1024 kBit/s
Quality : High
Add ID3 tag : No
Command line compressor : C:\Program Files\FLAC\flac.exe
Additional command line options : -V -8 -T "Date=%year%" -T "Genre=%genre%" -T"COMMENT=Ripped by Ilijan [MeTaLMaDNeSS.TeaM]" -8 -V %source%


TOC of the extracted CD

Track | Start | Length | Start sector | End sector
---------------------------------------------------------
1 | 0:00.00 | 1:26.03 | 0 | 6452
2 | 1:26.03 | 3:51.27 | 6453 | 23804
3 | 5:17.30 | 4:37.54 | 23805 | 44633
4 | 9:55.09 | 4:26.20 | 44634 | 64603
5 | 14:21.29 | 3:31.33 | 64604 | 80461
6 | 17:52.62 | 3:38.50 | 80462 | 96861
7 | 21:31.37 | 3:10.24 | 96862 | 111135
8 | 24:41.61 | 4:02.45 | 111136 | 129330
9 | 28:44.31 | 3:00.68 | 129331 | 142898
10 | 31:45.24 | 3:40.26 | 142899 | 159424
11 | 35:25.50 | 4:16.30 | 159425 | 178654
12 | 39:42.05 | 6:56.32 | 178655 | 209886
13 | 46:38.37 | 3:33.10 | 209887 | 225871
14 | 50:11.47 | 4:07.73 | 225872 | 244469
15 | 54:19.45 | 3:27.57 | 244470 | 260051
16 | 57:47.27 | 4:43.47 | 260052 | 281323


Range status and errors

Selected range

Filename D:\Vknish + Devastator + ungern666 = Swolo4 (Download, Upload On Rutracker, DIE!!!)\Airborn - Lizard Secrets (Japan).wav

Peak level 97.9 %
Extraction speed 4.2 X
Range quality 100.0 %
Test CRC EBD91891
Copy CRC EBD91891
Copy OK

No errors occurred


AccurateRip summary

Track 1 not present in database
Track 2 not present in database
Track 3 not present in database
Track 4 not present in database
Track 5 not present in database
Track 6 not present in database
Track 7 not present in database
Track 8 not present in database
Track 9 not present in database
Track 10 not present in database
Track 11 not present in database
Track 12 not present in database
Track 13 not present in database
Track 14 not present in database
Track 15 not present in database
Track 16 not present in database

None of the tracks are present in the AccurateRip database

End of status report

---- CUETools DB Plugin V2.1.6

[CTDB TOCID: bcy56eM_msqbmOXqmx.Jn2RXkrM-] disk not present in database
Submit result: bcy56eM_msqbmOXqmx.Jn2RXkrM- has been uploaded


==== Log checksum 1F0D89E73B690A77649EB1556F9A639FB596F55DC30B0FF2B64AABF7EDD8AD3F ====

cue
REM GENRE "Power Metal"
REM DATE 2018
REM DISCID E10EA610
REM COMMENT "ExactAudioCopy v1.3"
PERFORMER "Airborn"
TITLE "Lizard Secrets (Japan)"
FILE "Airborn - Lizard Secrets (Japan).flac" WAVE
TRACK 01 AUDIO
TITLE "Immortal Underdogs (Intro)"
PERFORMER "Airborn"
INDEX 01 00:00:00
TRACK 02 AUDIO
TITLE "Who We Are"
PERFORMER "Airborn"
INDEX 01 01:26:03
TRACK 03 AUDIO
TITLE "Lizard Secret"
PERFORMER "Airborn"
INDEX 01 05:17:30
TRACK 04 AUDIO
TITLE "We Realize"
PERFORMER "Airborn"
INDEX 01 09:55:09
TRACK 05 AUDIO
TITLE "Brace For Impact"
PERFORMER "Airborn"
INDEX 01 14:21:29
TRACK 06 AUDIO
TITLE "Wolf Child"
PERFORMER "Airborn"
INDEX 01 17:52:62
TRACK 07 AUDIO
TITLE "Here Comes The Claw"
PERFORMER "Airborn"
INDEX 01 21:31:37
TRACK 08 AUDIO
TITLE "Land Of The Living"
PERFORMER "Airborn"
INDEX 01 24:41:61
TRACK 09 AUDIO
TITLE "Meaning Of Life"
PERFORMER "Airborn"
INDEX 01 28:44:31
TRACK 10 AUDIO
TITLE "Metal Haters"
PERFORMER "Airborn"
INDEX 01 31:45:24
TRACK 11 AUDIO
TITLE "Defenders Of Planet Earth"
PERFORMER "Airborn"
INDEX 01 35:25:50
TRACK 12 AUDIO
TITLE "My Country Is The World"
PERFORMER "Airborn"
INDEX 01 39:42:05
TRACK 13 AUDIO
TITLE "Cosmic Rebels {Re-Recording / Bonus Track}"
PERFORMER "Airborn"
INDEX 01 46:38:37
TRACK 14 AUDIO
TITLE "Heavy Metal Wars {Re-Recording / Bonus Track}"
PERFORMER "Airborn"
INDEX 01 50:11:47
TRACK 15 AUDIO
TITLE "The Hero {Re-Recording / Bonus Track}"
PERFORMER "Airborn"
INDEX 01 54:19:45
TRACK 16 AUDIO
TITLE "Return To The Sky {Re-Recording / Bonus Track}"
PERFORMER "Airborn"
INDEX 01 57:47:27

scans
Image

Image

Image

Image

Image

Image

Image

Image

Image

Image

Image

Image

Image

Image



А это явно спёртая версия :kro:

_________________


Top
 Profile E-mail  
 
 
PostPosted: 12 Apr 2018 
Хиппей (support team)
User avatar
Joined: 30 Jul 2007
Posts: 114829
Lоcаtion: Киев (Kyiv, UA)
Age: 46
Name: Andrey
sin2 wrote:
2018 - Lizard Secrets: Part One - Land of the Living

Сразу оценочку альбому и бонусам - 10/10

На самом деле здесь 16 композиций, 5 из которых перезапись старых.
Но абсолютно все - 100-%е хиты :meloman: :meloman: :meloman:

Альбом лепен и невероятно хитов. Но... попсоватенький и предсказуем слишком. Эдакое повидло крепкое хэви-паверное с самым современнейшим саундом, от которого, впрочем, меня за полдня прослушивания не вырвало, а даже наоборот - дико возрадовался такой музыке.
Но, увы, в топы я альбом внести никак не могу. Для топов здесь мне чего-то не хватает. Сам пока не пойму, чего :vic:
Может выстояться должен?..

_________________


Top
 Profile E-mail  
 
 
PostPosted: 12 Apr 2018 
Я набрал 1000 сообщений!
Joined: 21 Nov 2009
Posts: 1415
Lоcаtion: praga
Age: 49
Name: Сергей
Андрюша,да чем же он тебе так понравился?Альбом вторичен,вокал-никакой и даже стал преснее чем раньше.Кай Хансен прям Хворостовский по сравнению с Алессио Перарди.На первых был немного другой состав и все огрехи компенсировались драйвом и агрессией и главное-это руководством Питера Зилка.Попробуй послушай их дебютник 2001 года и сравни.


Top
 Profile E-mail  
 
 
PostPosted: 13 Apr 2018 
Хиппей (support team)
User avatar
Joined: 30 Jul 2007
Posts: 114829
Lоcаtion: Киев (Kyiv, UA)
Age: 46
Name: Andrey
Серёг, ты чем меня читал снова?

_________________


Top
 Profile E-mail  
 
 
PostPosted: 13 Apr 2018 
Я набрал 1000 сообщений!
Joined: 21 Nov 2009
Posts: 1415
Lоcаtion: praga
Age: 49
Name: Сергей
Нет,ну я конечно без очков читал,но ты дал оценку 10/10.Или я "смотрю в книгу-вижу фигу"?


Top
 Profile E-mail  
 
 
PostPosted: 13 Apr 2018 
Хиппей (support team)
User avatar
Joined: 30 Jul 2007
Posts: 114829
Lоcаtion: Киев (Kyiv, UA)
Age: 46
Name: Andrey
Именно, видишь только оценку :pardon:

_________________


Top
 Profile E-mail  
 
Display posts from previous:  Sort by  
Post new topic Reply to topic  [ 35 posts ]  Go to page Previous  1, 2

All times are UTC + 3 hours


Who is online

Users browsing this forum: No registered users and 1 guest


You cannot post new topics in this forum
You cannot reply to topics in this forum
You cannot edit your posts in this forum
You cannot delete your posts in this forum
You cannot post attachments in this forum

Search for:
Яндекс.Метрика
Powered by phpBB © 2000, 2002, 2005, 2007 phpBB Group