\m/ 80's metal \m/

Информационно-аналитический форум "80 см пыли" (In Search We Trust) "У нас никто никуда не спешит"
Me For You - http://me-4u.com
It is currently 20 Oct 2019

All times are UTC + 3 hours

Spoiler
Chat - temporary registration for foreign users (please leave your application here)







Post new topic Reply to topic  [ 20 posts ] 
Author Message
 
PostPosted: 27 Dec 2008 
Я набрал 1000 сообщений!
Joined: 12 Dec 2008
Posts: 1066
Lоcаtion: BULGARIA
Age: 41
Name: DIMITЪR
Alltheniko - Devasterpiece

Image

1. Erased 05:19
2. The evil forces 04:55
3. Thunder and steel 04:45
4. Law of the stronger 04:29
5. Devasterpiece 01:22
6. Metal unchained 04:55
7. Rise and fall 04:31
8. I'm a fuckin zombie 03:35
9. Feel the power 04:28
10. When this demon's coming 05:05
11. The godfather 05:49
*****************************
Help me,help me ,help me :true: :true: :true: :true: :true:


Top
 Profile  
 
 
PostPosted: 28 Dec 2008 
Mechanix
User avatar
Joined: 05 Sep 2007
Posts: 486
Lоcаtion: Краснодар
Age: 46
Name: Лёха
VBR только у меня... устроит?


Top
 Profile  
 
 
PostPosted: 28 Dec 2008 
Хиппей (support team)
User avatar
Joined: 30 Jul 2007
Posts: 114953
Lоcаtion: Киев (Kyiv, UA)
Age: 46
Name: Andrey
VBR~256 устроит?


Top
 Profile E-mail  
 
 
PostPosted: 28 Dec 2008 
Хиппей (support team)
User avatar
Joined: 30 Jul 2007
Posts: 114953
Lоcаtion: Киев (Kyiv, UA)
Age: 46
Name: Andrey
:nunu:


Top
 Profile E-mail  
 
 
PostPosted: 28 Dec 2008 
Хиппей (support team)
User avatar
Joined: 30 Jul 2007
Posts: 114953
Lоcаtion: Киев (Kyiv, UA)
Age: 46
Name: Andrey
cryptors wrote:
Ищу Alltheniko-Devasterpiece(2008) @320kbps

Ой, тогда нету :pardon:


Top
 Profile E-mail  
 
 
PostPosted: 28 Dec 2008 
Я набрал 1000 сообщений!
Joined: 12 Dec 2008
Posts: 1066
Lоcаtion: BULGARIA
Age: 41
Name: DIMITЪR
Ето не раритет ,в 320 можно найти.


Top
 Profile  
 
 
PostPosted: 28 Dec 2008 
Хиппей (support team)
User avatar
Joined: 30 Jul 2007
Posts: 114953
Lоcаtion: Киев (Kyiv, UA)
Age: 46
Name: Andrey
Дык, конечно можно. Вопрос тогда в том, зачем было вообще запрос делать? :scratch:


Top
 Profile E-mail  
 
 
PostPosted: 28 Dec 2008 
Mechanix
User avatar
Joined: 05 Sep 2007
Posts: 486
Lоcаtion: Краснодар
Age: 46
Name: Лёха
Scatterbrain На "слабо" проверяет! :)


Top
 Profile  
 
 
PostPosted: 29 Dec 2008 
Хиппей (support team)
User avatar
Joined: 30 Jul 2007
Posts: 114953
Lоcаtion: Киев (Kyiv, UA)
Age: 46
Name: Andrey
alegri, так не наш формат это, чтоб усиленно искать :pardon:
Не слушал группу, но мало верится, что играют они не modern thrash :beee:


Top
 Profile E-mail  
 
 
PostPosted: 29 Dec 2008 
Mechanix
User avatar
Joined: 05 Sep 2007
Posts: 486
Lоcаtion: Краснодар
Age: 46
Name: Лёха
Scatterbrain каким местом ты предположил, что это модерн тресх? =) Итальяшки колбасят на стыке power и thrash metal, и весьма неплохо, местами даже олдскульно! :true:


Top
 Profile  
 
 
PostPosted: 29 Dec 2008 
Хиппей (support team)
User avatar
Joined: 30 Jul 2007
Posts: 114953
Lоcаtion: Киев (Kyiv, UA)
Age: 46
Name: Andrey
alegri wrote:
местами даже олдскульно!

Ну разве что местами. Прослушаю как-нить.


Top
 Profile E-mail  
 
 
PostPosted: 29 Dec 2008 
Эх, добрый я
User avatar
Joined: 04 Nov 2008
Posts: 315
Age: 45
Name: Вадим
Отличная команда. Все правильно Power\thrash :true:


Top
 Profile  
 
 
PostPosted: 29 Dec 2008 
Хиппей (support team)
User avatar
Joined: 30 Jul 2007
Posts: 114953
Lоcаtion: Киев (Kyiv, UA)
Age: 46
Name: Andrey
А на диске ни у кого этого альбома нет? :oops:


Top
 Profile E-mail  
 
 
PostPosted: 04 Mar 2014 
Rara avis
User avatar
Joined: 27 Jan 2009
Posts: 5279
Name: .
http://rutracker.org/forum/viewtopic.php?t=3663121


Top
 Profile E-mail  
 
 
PostPosted: 04 Mar 2014 
Генеральный thrasher
User avatar
Joined: 03 Oct 2008
Posts: 3741
Lоcаtion: Ханты-Мансийский АО
Age: 44
Name: Сергей
У меня диск есть...и если надо,можно сделать :losik: ...если кому-нибудь всё ещё надо :vic:


Top
 Profile  
 
 
PostPosted: 05 Mar 2014 
консэрваторъ
User avatar
Joined: 11 Aug 2007
Posts: 17310
Lоcаtion: Псков
Age: 45
Name: Сергей
Рекса можно снимать...

_________________
THRASH 'EM ALL


Top
 Profile E-mail  
 
 
PostPosted: 08 Mar 2014 
Хиппей (support team)
User avatar
Joined: 30 Jul 2007
Posts: 114953
Lоcаtion: Киев (Kyiv, UA)
Age: 46
Name: Andrey
thorbeorn wrote:
У меня диск есть...и если надо,можно сделать

Серёг, а давай, плиз, как время будет. В Сети вроде альбома нет в лосе.
Ааа, стоп, тормозю, Даша ж как раз ссылку на него и оставила выше :dance:

После перезаливки оттуда сюда рекса уберу.

_________________


Top
 Profile E-mail  
 
 
PostPosted: 08 Mar 2014 
Хиппей (support team)
User avatar
Joined: 30 Jul 2007
Posts: 114953
Lоcаtion: Киев (Kyiv, UA)
Age: 46
Name: Andrey
И еще кста - до сих пор не пойму, зачем Димитар этот запрос делал :pardon:

_________________


Top
 Profile E-mail  
 
 
PostPosted: 19 Mar 2014 
Хиппей (support team)
User avatar
Joined: 30 Jul 2007
Posts: 114953
Lоcаtion: Киев (Kyiv, UA)
Age: 46
Name: Andrey
Alltheniko - 2008 - Devasterpiece [flac]

Image Image

Image Image

mirror: Narod l M-Cloud

Достаточно модный, но без наворотов хэви-павер с мощным вокалистом (а-ля Пиви Вагнер плюс Майк Хоу), неплохим, но однотипным гитаристом и не очень оригинальной музыкой.
Предыдущий альбом был намного лучше, если верить отзывам на него.

6/10

И снова удивлён, чем же понравился этот альбом болгарскому другу, ведь совершенно не его жанр это :vic:

log
Exact Audio Copy V0.99 prebeta 5 from 4. May 2009

Отчёт EAC об извлечении, выполненном 22. июля 2011, 16:39

Alltheniko / Devasterpiece

Дисковод: HL-DT-STDVD-RAM GSA-H55L Adapter: 1 ID: 0

Режим чтения : Достоверность
Использование точного потока : Да
Отключение кэша аудио : Да
Использование указателей C2 : Нет

Комбинированное смещение чтения/записи : 102
Способность читать области Lead-in и Lead-out : Нет
Заполнение пропущенных сэмплов тишиной : Да
Удаление блоков с тишиной в начале и конце : Нет
При вычислениях CRC использовались нулевые сэмплы : Да
Интерфейс : Встроенный Win32-интерфейс для Win NT/2000

Выходной формат : Пользовательский кодировщик
Выбранный битрейт : 1024 kBit/s
Качество : Высокий
Добавление ID3-тэга : Нет
Утилита сжатия : C:\Program Files (x86)\Exact Audio Copy\FLAC\FLAC.EXE
Дополнительные параметры : -6 -V -T "ARTIST=%a" -T "TITLE=%t" -T "ALBUM=%g" -T "DATE=%y" -T "TRACKNUMBER=%n" -T "GENRE=%m" -T "COMMENT=%e" %s -o %d
Смещение при сжатии : 102


TOC извлечённого CD

Трек | Старт | Длительность | Начальный сектор | Конечный сектор
---------------------------------------------------------------------
1 | 0:00.00 | 5:17.43 | 0 | 23817
2 | 5:17.43 | 4:53.42 | 23818 | 45834
3 | 10:11.10 | 4:43.16 | 45835 | 67075
4 | 14:54.26 | 4:27.31 | 67076 | 87131
5 | 19:21.57 | 1:20.36 | 87132 | 93167
6 | 20:42.18 | 4:53.05 | 93168 | 115147
7 | 25:35.23 | 4:29.18 | 115148 | 135340
8 | 30:04.41 | 3:33.70 | 135341 | 151385
9 | 33:38.36 | 4:27.05 | 151386 | 171415
10 | 38:05.41 | 5:03.42 | 171416 | 194182
11 | 43:09.08 | 5:49.37 | 194183 | 220394


Характеристики диапазона извлечения и сообщения об ошибках

Выбранный диапазон

Имя файла C:\Music\Alltheniko - Devasterpiece.wav

Пиковый уровень 97.0 %
Качество диапазона 100.0 %
CRC теста 2B3109E0
CRC копии 2B3109E0
Копирование... OK

Ошибок не произошло

Конец отчёта

cue
REM GENRE "Heavy Power Metal"
REM DATE 2008
REM DISCID 8D0B7A0B
REM COMMENT "ExactAudioCopy v0.99pb5"
PERFORMER "Alltheniko"
TITLE "Devasterpiece"
FILE "Alltheniko - Devasterpiece.flac" WAVE
TRACK 01 AUDIO
TITLE "Erased"
PERFORMER "Alltheniko"
INDEX 01 00:00:00
TRACK 02 AUDIO
TITLE "The evil forces"
PERFORMER "Alltheniko"
INDEX 01 05:17:43
TRACK 03 AUDIO
TITLE "Thunder and steel"
PERFORMER "Alltheniko"
INDEX 01 10:11:10
TRACK 04 AUDIO
TITLE "Law of the stronger"
PERFORMER "Alltheniko"
INDEX 01 14:54:26
TRACK 05 AUDIO
TITLE "Devasterpiece"
PERFORMER "Alltheniko"
INDEX 01 19:21:57
TRACK 06 AUDIO
TITLE "Metal unchained"
PERFORMER "Alltheniko"
INDEX 01 20:42:18
TRACK 07 AUDIO
TITLE "Rise and fall"
PERFORMER "Alltheniko"
INDEX 01 25:35:23
TRACK 08 AUDIO
TITLE "I'm a fuckin' zombie"
PERFORMER "Alltheniko"
INDEX 01 30:04:41
TRACK 09 AUDIO
TITLE "Feel the power"
PERFORMER "Alltheniko"
INDEX 01 33:38:36
TRACK 10 AUDIO
TITLE "When this demon's coming"
PERFORMER "Alltheniko"
INDEX 01 38:05:41
TRACK 11 AUDIO
TITLE "The Godfather"
PERFORMER "Alltheniko"
INDEX 01 43:09:08

_________________


Top
 Profile E-mail  
 
 
PostPosted: 19 Mar 2014 
Генеральный thrasher
User avatar
Joined: 03 Oct 2008
Posts: 3741
Lоcаtion: Ханты-Мансийский АО
Age: 44
Name: Сергей
Да этот ещё неплох.А вот Millennium Re-Burn (2011) после первых двух вообще не катит...


Top
 Profile  
 
Display posts from previous:  Sort by  
Post new topic Reply to topic  [ 20 posts ] 

All times are UTC + 3 hours


Who is online

Users browsing this forum: No registered users and 2 guests


You cannot post new topics in this forum
You cannot reply to topics in this forum
You cannot edit your posts in this forum
You cannot delete your posts in this forum
You cannot post attachments in this forum

Search for:
Яндекс.Метрика
Powered by phpBB © 2000, 2002, 2005, 2007 phpBB Group