\m/ 80's metal \m/

Информационно-аналитический форум "80 см пыли" (In Search We Trust) "У нас никто никуда не спешит"
Me For You - http://me-4u.com
It is currently 06 Dec 2019

All times are UTC + 3 hours

Spoiler
Chat - temporary registration for foreign users (please leave your application here)







Post new topic Reply to topic  [ 4 posts ] 
Author Message
 
PostPosted: 08 Nov 2008 
труъ антисионист
User avatar
Joined: 01 Aug 2007
Posts: 4544
Lоcаtion: Откуда и большинство из нас
Age: 38
Name: Дядя Вова
Animal (Randy Piper's Animal) - 900 Lb. Steam (2002)

Image

Группа: Randy Piper Animal
Альбом: 900 Lb. Steam
Год: 2002
Лейбл: Perris Records
Стиль: Heavy Metal
Страна: USA
Формат: APE + Log + CUE
Размер: 233

***********************************************************************************************

Line Up:

Randy Piper - guitars, vocals
Rich Lewis - vocals
Burn - bass guitar, vocals
Kelly Wilmot - drums



Tracks:
1. 900 Lb. Steam 04:06
2. Pissed Off 03:57
3. Dog Food 05:03
4. Never 05:37
5. Another Victim 06:04
6. Feeling Nowhere 05:10
7. Medicine Man 06:01
8. Talk Too Much 04:51
9. Hunting Season 03:55

Total playing time 44:48

===================================DOWNLOAD========================================

http://narod.ru/disk/3639937000/Animal_ ... m.rar.html

_________________
Image
Image


Top
 Profile  
 
 
PostPosted: 08 Nov 2008 
Труъ
User avatar
Joined: 05 Oct 2008
Posts: 194
Lоcаtion: Saint Petersburg
Age: 46
Name: Jesse
Спасибо, тоже заберу! :thanx:


Top
 Profile  
 
 
PostPosted: 09 Nov 2008 
Хиппей (support team)
User avatar
Joined: 30 Jul 2007
Posts: 115987
Lоcаtion: Киев (Kyiv, UA)
Age: 46
Name: Andrey
Спасибо!

Image Image


mirror: iFolder l Narod l M-Cloud

Image Image

log
Exact Audio Copy V0.99 prebeta 4 from 23. January 2008

Отчёт EAC об извлечении, выполненном 31. марта 2010, 19:24

Animal / 900 Lb. Steam

Дисковод: Optiarc DVD RW AD-7173S Adapter: 3 ID: 0

Режим чтения : Достоверность
Использование точного потока : Да
Отключение кэша аудио : Да
Использование указателей C2 : Нет

Коррекция смещения при чтении : 48
Способность читать области Lead-in и Lead-out : Нет
Заполнение пропущенных сэмплов тишиной : Да
Удаление блоков с тишиной в начале и конце : Нет
При вычислениях CRC использовались нулевые сэмплы : Да
Интерфейс : Встроенный Win32-интерфейс для Win NT/2000

Выходной формат : Monkey's Audio (без потерь)
Выбранный битрейт : Normal Lossless Compression
Качество : Высокий
Добавление ID3-тэга : Нет
Утилита сжатия : C:\Program Files\Monkey's Audio\MAC.exe


TOC извлечённого CD

Трек | Старт | Длительность | Начальный сектор | Конечный сектор
---------------------------------------------------------------------
1 | 0:00.00 | 4:06.11 | 0 | 18460
2 | 4:06.11 | 3:57.54 | 18461 | 36289
3 | 8:03.65 | 5:03.40 | 36290 | 59054
4 | 13:07.30 | 5:37.41 | 59055 | 84370
5 | 18:44.71 | 6:04.16 | 84371 | 111686
6 | 24:49.12 | 5:10.38 | 111687 | 134974
7 | 29:59.50 | 6:01.57 | 134975 | 162106
8 | 36:01.32 | 4:51.73 | 162107 | 184004
9 | 40:53.30 | 3:55.31 | 184005 | 201660


Характеристики диапазона извлечения и сообщения об ошибках

Выбранный диапазон

Имя файла E:\Выкладываемая Музыка\Animal - 900 Lb. Steam 2002\Animal - 900 Lb. Steam.wav

Пиковый уровень 100.0 %
Качество диапазона 100.0 %
CRC копии 67E9F87A
Копирование... OK

Ошибок не произошло

Конец отчёта

cue
REM GENRE Metal
REM DATE 2002
REM DISCID 780A8009
REM COMMENT "ExactAudioCopy v0.99pb4"
PERFORMER "Animal"
TITLE "900 Lb. Steam"
FILE "Animal - 900 Lb. Steam.ape" WAVE
TRACK 01 AUDIO
TITLE "900 Lb. Steam"
PERFORMER "Animal"
INDEX 01 00:00:00
TRACK 02 AUDIO
TITLE "Pissed Off"
PERFORMER "Animal"
INDEX 00 04:04:11
INDEX 01 04:06:11
TRACK 03 AUDIO
TITLE "Dog Food"
PERFORMER "Animal"
INDEX 00 08:00:65
INDEX 01 08:03:65
TRACK 04 AUDIO
TITLE "Never"
PERFORMER "Animal"
INDEX 00 13:05:30
INDEX 01 13:07:30
TRACK 05 AUDIO
TITLE "Another Victim"
PERFORMER "Animal"
INDEX 00 18:41:71
INDEX 01 18:44:71
TRACK 06 AUDIO
TITLE "Feeling Nowhere"
PERFORMER "Animal"
INDEX 00 24:45:12
INDEX 01 24:49:12
TRACK 07 AUDIO
TITLE "Medicine Man"
PERFORMER "Animal"
INDEX 00 29:57:50
INDEX 01 29:59:50
TRACK 08 AUDIO
TITLE "Talk to Much"
PERFORMER "Animal"
INDEX 00 35:59:32
INDEX 01 36:01:32
TRACK 09 AUDIO
TITLE "Hunting Season"
PERFORMER "Animal"
INDEX 00 40:51:30
INDEX 01 40:53:30


Top
 Profile E-mail  
 
 
PostPosted: 19 Nov 2008 
Персональный статус
User avatar
Joined: 23 Jan 2008
Posts: 339
Age: 45
Name: Олег
Забираю, спасибо тебе.


Top
 Profile  
 
Display posts from previous:  Sort by  
Post new topic Reply to topic  [ 4 posts ] 

All times are UTC + 3 hours


Who is online

Users browsing this forum: No registered users and 1 guest


You cannot post new topics in this forum
You cannot reply to topics in this forum
You cannot edit your posts in this forum
You cannot delete your posts in this forum
You cannot post attachments in this forum

Search for:
Яндекс.Метрика
Powered by phpBB © 2000, 2002, 2005, 2007 phpBB Group