\m/ 80's metal \m/

Информационно-аналитический форум "80 см пыли" (In Search We Trust) "У нас никто никуда не спешит"
Me For You - http://me-4u.com
It is currently 20 Oct 2019

All times are UTC + 3 hours

Spoiler
Chat - temporary registration for foreign users (please leave your application here)







Post new topic Reply to topic  [ 13 posts ] 
Author Message
 
PostPosted: 28 Sep 2018 
Работнечег
User avatar
Joined: 28 Aug 2007
Posts: 6035
Lоcаtion: г. Москва
Age: 30
Name: Дима
Image

Format: FLAC + CUE + LOG
Label: Self-released

Tracklist:
1. Nuclear Force 04:09
2. Bat Night Battle 03:24
3. Heavy Metal 05:59
4. The Law 04:02
5. Children of the Dark 03:35
6. No Way Out 03:46
7. Leather Warriors 03:52
8. The Fighter 03:47
9. Force & Trouble 02:56
10. We've Come to Rock You 02:22
11. Evil Thoughts (Live `87) 03:09
12. Force & Trouble (Live `87) 03:01
13. Wail at Midnight (Live `87) 05:06
14. The Law (Live `87) 04:52

Track 1-4 taken from the Destiny By Dawn Promotion Tape 1989
Track 5-10 were live recorded at the Home Studio Rettmer/Lüneburg 1986
Track 11-14 were recorded at a Live gig in FBZ Braunschweig 1987


LOG
Exact Audio Copy V0.99 prebeta 5 from 4. May 2009

EAC extraction logfile from 1. July 2018, 16:21

Advice / Destiny By Dawn

Used drive : PIONEER DVD-RW DVR-221 Adapter: 2 ID: 1

Read mode : Secure
Utilize accurate stream : Yes
Defeat audio cache : Yes
Make use of C2 pointers : No

Read offset correction : 6
Overread into Lead-In and Lead-Out : No
Fill up missing offset samples with silence : Yes
Delete leading and trailing silent blocks : No
Null samples used in CRC calculations : Yes
Used interface : Native Win32 interface for Win NT & 2000

Used output format : User Defined Encoder
Selected bitrate : 32 kBit/s
Quality : High
Add ID3 tag : No
Command line compressor : C:\Program Files\Exact Audio Copy\Flac\flac.exe
Additional command line options : -6 -V %s


TOC of the extracted CD

Track | Start | Length | Start sector | End sector
---------------------------------------------------------
1 | 0:00.00 | 4:09.17 | 0 | 18691
2 | 4:09.17 | 3:24.18 | 18692 | 34009
3 | 7:33.35 | 5:59.18 | 34010 | 60952
4 | 13:32.53 | 4:02.28 | 60953 | 79130
5 | 17:35.06 | 3:34.65 | 79131 | 95245
6 | 21:09.71 | 3:46.09 | 95246 | 112204
7 | 24:56.05 | 3:52.00 | 112205 | 129604
8 | 28:48.05 | 3:46.65 | 129605 | 146619
9 | 32:34.70 | 2:56.28 | 146620 | 159847
10 | 35:31.23 | 2:22.09 | 159848 | 170506
11 | 37:53.32 | 3:09.00 | 170507 | 184681
12 | 41:02.32 | 3:01.00 | 184682 | 198256
13 | 44:03.32 | 5:05.50 | 198257 | 221181
14 | 49:09.07 | 4:52.42 | 221182 | 243123


Range status and errors

Selected range

Filename D:\Музыка\Lossless\Advice - Destiny By Dawn (2015)\Advice - Destiny By Dawn.wav

Peak level 96.0 %
Range quality 100.0 %
Copy CRC 498A4BB4
Copy OK

No errors occurred


AccurateRip summary

Track 1 not present in database
Track 2 not present in database
Track 3 not present in database
Track 4 not present in database
Track 5 not present in database
Track 6 not present in database
Track 7 not present in database
Track 8 not present in database
Track 9 not present in database
Track 10 not present in database
Track 11 not present in database
Track 12 not present in database
Track 13 not present in database
Track 14 not present in database

None of the tracks are present in the AccurateRip database

End of status report

CUE
REM GENRE "Heavy Metal"
REM DATE 2015
REM DISCID BE0CA90E
REM COMMENT "ExactAudioCopy v0.99pb5"
PERFORMER "Advice"
TITLE "Destiny By Dawn"
FILE "Advice - Destiny By Dawn.flac" WAVE
TRACK 01 AUDIO
TITLE "Nuclear Force"
PERFORMER "Advice"
INDEX 01 00:00:00
TRACK 02 AUDIO
TITLE "Bat Night Battle"
PERFORMER "Advice"
INDEX 01 04:09:17
TRACK 03 AUDIO
TITLE "Heavy Metal"
PERFORMER "Advice"
INDEX 01 07:33:35
TRACK 04 AUDIO
TITLE "The Law"
PERFORMER "Advice"
INDEX 01 13:32:53
TRACK 05 AUDIO
TITLE "Children Of The Dark"
PERFORMER "Advice"
INDEX 01 17:35:06
TRACK 06 AUDIO
TITLE "No Way Out"
PERFORMER "Advice"
INDEX 01 21:09:71
TRACK 07 AUDIO
TITLE "Leather Warriors"
PERFORMER "Advice"
INDEX 01 24:56:05
TRACK 08 AUDIO
TITLE "The Fighter"
PERFORMER "Advice"
INDEX 01 28:48:05
TRACK 09 AUDIO
TITLE "Force & Trouble"
PERFORMER "Advice"
INDEX 01 32:34:70
TRACK 10 AUDIO
TITLE "We've Come To Rock You"
PERFORMER "Advice"
INDEX 01 35:31:23
TRACK 11 AUDIO
TITLE "Evil Thoughts"
PERFORMER "Advice"
INDEX 01 37:53:32
TRACK 12 AUDIO
TITLE "Force & Trouble"
PERFORMER "Advice"
INDEX 01 41:02:32
TRACK 13 AUDIO
TITLE "Wail At Midnight"
PERFORMER "Advice"
INDEX 01 44:03:32
TRACK 14 AUDIO
TITLE "The Law"
PERFORMER "Advice"
INDEX 01 49:09:07


Yadi

Отличная сборка, кроме пожалуй концертных версий треков! Мне понравилось всё, рекомендую :true:


Top
 Profile E-mail  
 
 
PostPosted: 28 Sep 2018 
Рарник и трушник
User avatar
Joined: 25 Dec 2009
Posts: 8793
Lоcаtion: Москва
Age: 54
Name: Виталий
:thanx:


Top
 Profile  
 
 
PostPosted: 29 Sep 2018 
Хиппей (support team)
User avatar
Joined: 30 Jul 2007
Posts: 114954
Lоcаtion: Киев (Kyiv, UA)
Age: 46
Name: Andrey
:thanx:

mirror: Uloz l Drop l Narod l M-Cloud


Хотя, вроде уже была у нас на форуме эта группа.. :scratch:

_________________


Top
 Profile E-mail  
 
 
PostPosted: 29 Sep 2018 
А может смените мне статус?..
Joined: 03 Jul 2009
Posts: 885
Lоcаtion: Serbia
Name: Laki
:thanx:


Top
 Profile E-mail  
 
 
PostPosted: 01 Oct 2018 
семерых одним ударом
Joined: 18 Aug 2007
Posts: 4165
Lоcаtion: Владивосток
Age: 44
Name: Николай Николаевич
интересный альбом, достойная группа. Спасибо, ничуть не хуже более громких имен типа Maniac или Vampyr


Top
 Profile  
 
 
PostPosted: 01 Oct 2018 
Прокъмитолист
User avatar
Joined: 12 Aug 2007
Posts: 6627
Lоcаtion: Санктъ-Петербуркъ
Age: 52
Name: Олекъ
:thanx:

_________________
прокъметол - это музыко, от которово есть прок (ы)


Top
 Profile  
 
 
PostPosted: 02 Oct 2018 
Рарник и трушник
User avatar
Joined: 25 Dec 2009
Posts: 8793
Lоcаtion: Москва
Age: 54
Name: Виталий
aziel wrote:
ничуть не хуже более громких имен типа Maniac или Vampyr

Только при условии качественно сведённой записи можно так было бы сказать. А так нет, хуже и значительно. :pardon:
Ещё ж сингл нужно найти:

и епишку с бадкампа:


Top
 Profile  
 
 
PostPosted: 02 Oct 2018 
семерых одним ударом
Joined: 18 Aug 2007
Posts: 4165
Lоcаtion: Владивосток
Age: 44
Name: Николай Николаевич
Ну я сужу по мелодиям и рифам. С качеством понятно все...


Top
 Profile  
 
 
PostPosted: 04 Oct 2018 
Хиппей (support team)
User avatar
Joined: 30 Jul 2007
Posts: 114954
Lоcаtion: Киев (Kyiv, UA)
Age: 46
Name: Andrey
Первая тема по группе :arrow: viewtopic.php?f=102&t=4145
Явно нужно бы объединить, но пока там запрос торчит не выполненный :pardon:
Да и Виталий явно в него два миника подбросит :kro:

_________________


Top
 Profile E-mail  
 
 
PostPosted: 08 Oct 2018 
Хиппей (support team)
User avatar
Joined: 30 Jul 2007
Posts: 114954
Lоcаtion: Киев (Kyiv, UA)
Age: 46
Name: Andrey
Демка хороша, остальное так себе :pardon:

6+/10

_________________


Top
 Profile E-mail  
 
 
PostPosted: 08 Oct 2018 
Хиппей (support team)
User avatar
Joined: 30 Jul 2007
Posts: 114954
Lоcаtion: Киев (Kyiv, UA)
Age: 46
Name: Andrey

Добавлять это в запросы?

_________________


Top
 Profile E-mail  
 
 
PostPosted: 08 Oct 2018 
Рарник и трушник
User avatar
Joined: 25 Dec 2009
Posts: 8793
Lоcаtion: Москва
Age: 54
Name: Виталий
Scatterbrain wrote:
Добавлять это в запросы?

Добавь, будь ласка! Вдруг повезёт. :thanx:


Top
 Profile  
 
 
PostPosted: 09 Oct 2018 
Хиппей (support team)
User avatar
Joined: 30 Jul 2007
Posts: 114954
Lоcаtion: Киев (Kyiv, UA)
Age: 46
Name: Andrey
Ок. Только уже в другой теме. По запросам которая.

_________________


Top
 Profile E-mail  
 
Display posts from previous:  Sort by  
Post new topic Reply to topic  [ 13 posts ] 

All times are UTC + 3 hours


Who is online

Users browsing this forum: No registered users and 0 guests


You cannot post new topics in this forum
You cannot reply to topics in this forum
You cannot edit your posts in this forum
You cannot delete your posts in this forum
You cannot post attachments in this forum

Search for:
Яндекс.Метрика
Powered by phpBB © 2000, 2002, 2005, 2007 phpBB Group