\m/ 80's metal \m/

Информационно-аналитический форум "80 см пыли" (In Search We Trust) "У нас никто никуда не спешит"
Me For You - http://me-4u.com
It is currently 22 Oct 2019

All times are UTC + 3 hours

Spoiler
Chat - temporary registration for foreign users (please leave your application here)







Post new topic Reply to topic  [ 12 posts ] 
Author Message
 
PostPosted: 20 Jan 2018 
Работнечег
User avatar
Joined: 28 Aug 2007
Posts: 6037
Lоcаtion: г. Москва
Age: 30
Name: Дима
Image

Label: Battle Cry Records
Genre: Heavy Metal
Coutry: Germany
Format: Flac + Log + Cue + Covers
Size: 515 Mb

Line-Up:
Chris Hattrikk - Bass
Gary G. - Drums
U.B. Vincent - Guitars
Chris J.White - Guitars
Arnie Arnraldi - Vocals


Tracklist:
1. Crazy King 04:36
2. Village in Rage 05:02
3. Stranger in Time 07:17
4. Vampire on the Run 05:57
5. Virgin in Ice 05:10
6. Call me a Fool 06:50
7. Aggressive Art 04:21
8. Lost in the Dark 04:09
9. Eternal Storm 04:52
10. Go away 02:49
11. In the Name of God 06:16
12. Acer Fury 03:04
13. Unicorns die lonely 04:56
14. Storm in my Mind 04:19

LOG
Exact Audio Copy V0.99 prebeta 5 from 4. May 2009

EAC extraction logfile from 26. November 2017, 19:55

Acer Fury / Crazy King (Compilation)

Used drive : PIONEER DVD-RW DVR-221 Adapter: 2 ID: 1

Read mode : Secure
Utilize accurate stream : Yes
Defeat audio cache : Yes
Make use of C2 pointers : No

Read offset correction : 6
Overread into Lead-In and Lead-Out : No
Fill up missing offset samples with silence : Yes
Delete leading and trailing silent blocks : No
Null samples used in CRC calculations : Yes
Used interface : Native Win32 interface for Win NT & 2000

Used output format : User Defined Encoder
Selected bitrate : 32 kBit/s
Quality : High
Add ID3 tag : No
Command line compressor : C:\Program Files\Exact Audio Copy\Flac\flac.exe
Additional command line options : -6 -V %s


TOC of the extracted CD

Track | Start | Length | Start sector | End sector
---------------------------------------------------------
1 | 0:00.00 | 4:36.15 | 0 | 20714
2 | 4:36.15 | 5:01.38 | 20715 | 43327
3 | 9:37.53 | 7:17.18 | 43328 | 76120
4 | 16:54.71 | 5:56.46 | 76121 | 102866
5 | 22:51.42 | 5:09.56 | 102867 | 126097
6 | 28:01.23 | 6:49.72 | 126098 | 156844
7 | 34:51.20 | 4:20.69 | 156845 | 176413
8 | 39:12.14 | 4:09.32 | 176414 | 195120
9 | 43:21.46 | 4:52.37 | 195121 | 217057
10 | 48:14.08 | 2:49.06 | 217058 | 229738
11 | 51:03.14 | 6:16.01 | 229739 | 257939
12 | 57:19.15 | 3:04.22 | 257940 | 271761
13 | 60:23.37 | 4:56.04 | 271762 | 293965
14 | 65:19.41 | 4:19.29 | 293966 | 313419


Range status and errors

Selected range

Filename D:\Музыка\Lossless\Acer Fury - Crazy King (Compilation)(2016)\Acer Fury - Crazy King (Compilation).wav

Peak level 98.8 %
Range quality 100.0 %
Copy CRC 726273A6
Copy OK

No errors occurred


AccurateRip summary

Track 1 not present in database
Track 2 not present in database
Track 3 not present in database
Track 4 not present in database
Track 5 not present in database
Track 6 not present in database
Track 7 not present in database
Track 8 not present in database
Track 9 not present in database
Track 10 not present in database
Track 11 not present in database
Track 12 not present in database
Track 13 not present in database
Track 14 not present in database

None of the tracks are present in the AccurateRip database

End of status report

CUE
REM GENRE "Heavy Metal"
REM DATE 2016
REM DISCID C910520E
REM COMMENT "ExactAudioCopy v0.99pb5"
PERFORMER "Acer Fury"
TITLE "Crazy King (Compilation)"
FILE "Acer Fury - Crazy King (Compilation).flac" WAVE
TRACK 01 AUDIO
TITLE "Crazy King"
PERFORMER "Acer Fury"
INDEX 01 00:00:00
TRACK 02 AUDIO
TITLE "Village In Rage"
PERFORMER "Acer Fury"
INDEX 00 04:35:65
INDEX 01 04:36:15
TRACK 03 AUDIO
TITLE "Stranger In Time"
PERFORMER "Acer Fury"
INDEX 00 09:37:28
INDEX 01 09:37:53
TRACK 04 AUDIO
TITLE "Vampire On The Run"
PERFORMER "Acer Fury"
INDEX 00 16:53:29
INDEX 01 16:54:71
TRACK 05 AUDIO
TITLE "Virgin In Ice"
PERFORMER "Acer Fury"
INDEX 00 22:50:29
INDEX 01 22:51:42
TRACK 06 AUDIO
TITLE "Call Me A Fool"
PERFORMER "Acer Fury"
INDEX 00 27:59:46
INDEX 01 28:01:23
TRACK 07 AUDIO
TITLE "Aggressive Art"
PERFORMER "Acer Fury"
INDEX 00 34:49:58
INDEX 01 34:51:20
TRACK 08 AUDIO
TITLE "Lost In The Dark"
PERFORMER "Acer Fury"
INDEX 00 39:10:54
INDEX 01 39:12:14
TRACK 09 AUDIO
TITLE "Eternal Storm"
PERFORMER "Acer Fury"
INDEX 00 43:19:43
INDEX 01 43:21:46
TRACK 10 AUDIO
TITLE "Go Away"
PERFORMER "Acer Fury"
INDEX 01 48:14:08
TRACK 11 AUDIO
TITLE "In The Name Of God"
PERFORMER "Acer Fury"
INDEX 01 51:03:14
TRACK 12 AUDIO
TITLE "Acer Fury"
PERFORMER "Acer Fury"
INDEX 01 57:19:15
TRACK 13 AUDIO
TITLE "Unicorns Die Lonely"
PERFORMER "Acer Fury"
INDEX 00 60:22:43
INDEX 01 60:23:37
TRACK 14 AUDIO
TITLE "Storm In My Mind"
PERFORMER "Acer Fury"
INDEX 00 65:18:59
INDEX 01 65:19:41


Yadi

Обычно сборники состоят из старых демок на которых в лучшем случае половина материала довольно неплохая, но по большей части просто для коллекции. Этот сборник наоборот очень крепкий, хоть и не шедевральный, но рекомендую к прослушиванию. Все песни были записаны в промежутке 1989-1992 годах.
Темка на форуме про группу: viewtopic.php?f=102&t=922&hilit=acer+fury



Top
 Profile E-mail  
 
 
PostPosted: 20 Jan 2018 
Хиппей (support team)
User avatar
Joined: 30 Jul 2007
Posts: 115005
Lоcаtion: Киев (Kyiv, UA)
Age: 46
Name: Andrey
:thanx:

mirror: Depos l Narod l Drop l M-Cloud

_________________


Top
 Profile E-mail  
 
 
PostPosted: 20 Jan 2018 
Прокъмитолист
User avatar
Joined: 12 Aug 2007
Posts: 6628
Lоcаtion: Санктъ-Петербуркъ
Age: 52
Name: Олекъ
:thanx:

_________________
прокъметол - это музыко, от которово есть прок (ы)


Top
 Profile  
 
 
PostPosted: 21 Jan 2018 
Анатолий
User avatar
Joined: 18 Oct 2008
Posts: 3573
Lоcаtion: Армавир
Age: 42
Name: Анатолий
:thanx:


Top
 Profile E-mail  
 
 
PostPosted: 21 Jan 2018 
А может смените мне статус?..
Joined: 03 Jul 2009
Posts: 885
Lоcаtion: Serbia
Name: Laki
:thanx:


Top
 Profile E-mail  
 
 
PostPosted: 22 Jan 2018 
семерых одним ударом
Joined: 18 Aug 2007
Posts: 4165
Lоcаtion: Владивосток
Age: 44
Name: Николай Николаевич
Дима, спасибо большое!


Top
 Profile  
 
 
PostPosted: 23 Jan 2018 
Хиппей (support team)
User avatar
Joined: 30 Jul 2007
Posts: 115005
Lоcаtion: Киев (Kyiv, UA)
Age: 46
Name: Andrey
Какой-то странный и недоделанный этот Азер Фури :vic:
Вроде обычный Heavy Metal, но поначалу показалось что и вокалист то толком петь не умеют, и играют музыканты то в лес, то по грибы.
Вроде и не дисгармоничная музыка, но и никак не гармоничная.

Полдня слушал, 2-3 композиции вменяемые, остальное шлак.
Так вот кратко и резко :(

4/10

_________________


Top
 Profile E-mail  
 
 
PostPosted: 09 Feb 2018 
Работнечег
User avatar
Joined: 28 Aug 2007
Posts: 6037
Lоcаtion: г. Москва
Age: 30
Name: Дима
Не знаю, мне понравилось, может у тебя настроение не то было :fingal:


Top
 Profile E-mail  
 
 
PostPosted: 21 Feb 2018 
Хиппей (support team)
User avatar
Joined: 30 Jul 2007
Posts: 115005
Lоcаtion: Киев (Kyiv, UA)
Age: 46
Name: Andrey
Не знаю, мне понравилось, может у тебя настроение не то было :fingal:

У меня всегда оно не как у всех, но на качество музыки это никак не влияет :pardon:

_________________


Top
 Profile E-mail  
 
 
PostPosted: 21 Feb 2018 
спирт 100%
User avatar
Joined: 22 Sep 2008
Posts: 4477
Age: 48
Name: Саня
Спасибо,Дим! :thanx:


Top
 Profile  
 
 
PostPosted: 21 Feb 2018 
Рарник и трушник
User avatar
Joined: 25 Dec 2009
Posts: 8795
Lоcаtion: Москва
Age: 54
Name: Виталий
:thanx: Заценю позднее. :thanx:


Top
 Profile  
 
 
PostPosted: 21 Feb 2018 
Я набрал 1000 сообщений!
Joined: 24 Oct 2009
Posts: 2277
Lоcаtion: Оренбург
Age: 56
Name: Юра
Спасибо, Дим!

_________________
:dash: I am happy!


Top
 Profile E-mail  
 
Display posts from previous:  Sort by  
Post new topic Reply to topic  [ 12 posts ] 

All times are UTC + 3 hours


Who is online

Users browsing this forum: No registered users and 2 guests


You cannot post new topics in this forum
You cannot reply to topics in this forum
You cannot edit your posts in this forum
You cannot delete your posts in this forum
You cannot post attachments in this forum

Search for:
Яндекс.Метрика
Powered by phpBB © 2000, 2002, 2005, 2007 phpBB Group